<svg xmlns="http://www.w3.org/2000/svg"><defs><font id="RobotoRegular" horiz-adv-x="1164"><font-face units-per-em="2048" ascent="1536" descent="-512"/><glyph unicode="ﬁ" horiz-adv-x="1140" d="M28 936v146h170v117q0 182 106.5 282T600 1581q67 0 132-15.5t153-45.5l-34-160q-53 21-113 36t-123 15q-117 0-168.5-52T395 1199v-117h215V936H395V0H198v936H28zM783 0v1082h198V0H783z"/><glyph horiz-adv-x="509"/><glyph horiz-adv-x="0"/><glyph horiz-adv-x="0"/><glyph horiz-adv-x="0"/><glyph horiz-adv-x="509"/><glyph horiz-adv-x="509"/><glyph horiz-adv-x="509"/><glyph unicode="!" horiz-adv-x="539" d="M171 0v204h198V0H171zm0 478v978h197V478H171z"/><glyph unicode="&quot;" horiz-adv-x="733" d="m126 936 1 240v280h197v-270L223 936h-97zm309 0v520h198v-270L532 936h-97z"/><glyph unicode="#" horiz-adv-x="1276" d="M70 410v140h264l68 348H146v142h284l82 416h151l-82-416h255l82 416h151l-82-416h199V898H960l-68-348h219V410H864L784 0H632l80 410H457L377 0H226l80 410H70zm415 140h255l68 348H553z"/><glyph unicode="$" horiz-adv-x="1193" d="m131 424 2 5h190q0-154 78-219.5T591 144q129 0 201.5 61.5T865 376q0 90-63.5 153.5T591 643q-202 61-305 163t-103 272q0 165 95 269t261 125v221h158v-222q167-22 259.5-137t92.5-308H853q0 127-63 206t-174 79q-118 0-177-61.5T380 1081q0-97 61-157t219-114q204-66 303-164.5t99-267.5q0-172-103-273.5T676-16v-192H519v191Q347 1 237 108.5T131 424z"/><glyph unicode="%" horiz-adv-x="1498" d="M104 1099v77q0 127 82 214t219 87 219-86.5 82-214.5v-77q0-127-81.5-213T407 800q-138 0-220.5 86T104 1099zm146 0q0-74 40.5-125.5T407 922q73 0 113 51t40 126v77q0 74-40.5 126.5T405 1355q-75 0-115-52.5T250 1176v-77zm99-922 711 1138 109-67L458 110zm460 102v78q0 127 82 213.5t219 86.5q136 0 218.5-86.5T1411 357v-78q0-128-82-214t-217-86q-138 0-220.5 86T809 279zm146 0q0-75 40.5-126.5T1112 101q73 0 113 51.5t40 126.5v78q0 74-41 126t-114 52q-74 0-114.5-52T955 357v-78z"/><glyph unicode="&amp;" horiz-adv-x="1276" d="M64 392q0 122 70.5 213.5T345 789q-78 99-116 176.5T191 1125q0 169 97.5 260.5T557 1477q158 0 257-91t99-219q0-98-52.5-169.5T705 851l-109-80 340-409q41 65 64 144t23 167h176q0-132-39-244t-113-201L1232 5l-2-5h-229l-85 102q-80-60-177-91.5T538-21Q321-21 192.5 94T64 392zm197 0q0-113 71-186t206-73q72 0 142 24.5T812 228L451 663l-40-29q-91-68-120.5-130T261 392zm127 735q0-53 27-110.5T496 891l138 95q57 38 77.5 82.5T732 1167q0 61-48.5 108T557 1322q-81 0-125-56.5T388 1127z"/><glyph unicode="'" horiz-adv-x="445" d="m126 951 1 265v240h197v-223L223 951h-97z"/><glyph unicode="(" horiz-adv-x="679" d="M132 582v9q0 394 159 673t334 372l6-1 38-116q-137-107-238.5-343T329 593v-13q0-347 101-583t239-352l-38-108h-6Q450-370 291-91.5T132 582z"/><glyph unicode=")" horiz-adv-x="687" d="M6-355Q141-250 243.5-9.5T346 580v13q0 342-105.5 583.5T6 1528l38 108h6q174-93 333.5-372T543 591v-9q0-395-159.5-673.5T50-463h-6z"/><glyph unicode="*" horiz-adv-x="884" d="m88 763 49 154 236-90-10 254h161l-10-260 233 89 48-156-242-68 153-200-132-96-140 218-135-210-133 92 158 206z"/><glyph unicode="+" horiz-adv-x="1162" d="M78 605v178h402v423h197V783h399V605H677V146H480v459H78z"/><glyph unicode="," horiz-adv-x="404" d="m48-258 70 316v163h197V48L165-258H48z"/><glyph unicode="-" horiz-adv-x="923" d="M167 538v154h590V538H167z"/><glyph unicode="." horiz-adv-x="548" d="M161 0v202h197V0H161z"/><glyph unicode="/" horiz-adv-x="850" d="m16-125 608 1581h167L184-125H16z"/><glyph unicode="0" horiz-adv-x="1153" d="M113 514v428q0 245 125.5 390T575 1477q212 0 338.5-145T1040 942V514q0-247-125.5-391T577-21q-211 0-337.5 144T113 514zm197-40q0-157 70.5-249T577 133q128 0 197 91.5T843 474v509q0 157-70 248t-198 91q-127 0-196-91t-69-248V474z"/><glyph unicode="1" horiz-adv-x="1153" d="M195 1271v152l515 54V0H512v1274z"/><glyph unicode="2" horiz-adv-x="1153" d="M138 1052q-5 178 119 301.5T594 1477q195 0 307-108t112-279q0-115-63.5-225T756 589L389 159l2-5h663V0H150v135l457 545q122 148 165.5 235.5T816 1092q0 101-59 165.5T594 1322q-129 0-196.5-79T330 1046H140z"/><glyph unicode="3" horiz-adv-x="1153" d="m120 378 2 6h188q0-106 76.5-178.5T584 133q120 0 189 74.5T842 402q0 137-63.5 205T579 675H417v153h162q132 0 186.5 65.5T820 1077q0 110-59.5 177.5T584 1322q-114 0-188.5-70.5T321 1075H133l-3 6q-5 164 124 280t330 116q203 0 318-102.5t115-301.5q0-102-53.5-186T814 756q110-44 167.5-133.5T1039 406q0-200-126.5-313.5T584-21Q398-21 256.5 88.5T120 378z"/><glyph unicode="4" horiz-adv-x="1153" d="M72 336v111l613 1009h208V490h201V336H893V0H697v336H72zm211 154h414v683l-6 1-19-50z"/><glyph unicode="5" horiz-adv-x="1153" d="m157 377 2 6h178q0-119 68.5-184.5T583 133q125 0 194 88t69 241q0 139-69.5 225T583 773q-116 0-168-35t-77-108l-163 17 84 809h729v-175H425l-47-419q47 35 104 57.5T612 943q202 2 316.5-126.5T1043 464q0-219-117.5-352T583-21Q398-21 275 80T157 377z"/><glyph unicode="6" horiz-adv-x="1153" d="M137 552v335q0 256 145.5 423T641 1477q86 0 170-17t139-43l-42-151q-57 25-120 40.5T641 1322q-137 0-222.5-117T333 909V796q61 61 144.5 96T657 927q188 0 297.5-126T1064 470q0-224-122.5-357.5T611-21q-202 0-338 153.5T137 552zm196-19q0-185 80.5-292.5T611 133q123 0 189.5 93.5T867 470q0 142-71.5 226T594 780q-93 0-159.5-39.5T333 634V533z"/><glyph unicode="7" horiz-adv-x="1153" d="M97 1301v155h966v-155Q787 973 690 722t-97-563V0H396v159q0 330 121.5 594.5T869 1301H97z"/><glyph unicode="8" horiz-adv-x="1153" d="M102 400q0 123 76.5 217T385 755q-112 42-177 128.5T143 1084q0 191 122.5 292T585 1477q186 0 305.5-101.5T1010 1084q0-114-64-200.5T776 754q124-43 199-137t75-217q0-201-130.5-311T587-21Q373-21 237.5 89T102 400zm197 4q0-123 80.5-197T587 133q114 0 190.5 74.5T854 404q0 119-77.5 196T585 677q-124 0-205-77t-81-196zm41 677q0-111 70-180t177-69q97 0 161.5 69t64.5 180q0 105-65.5 173T585 1322q-107 0-176-65.5T340 1081z"/><glyph unicode="9" horiz-adv-x="1153" d="M93 978q0 220 127 359.5T534 1477q218 0 350-137t132-387V511q0-251-144-391.5T501-21q-77 0-157.5 16T193 42l30 150q66-32 129.5-45.5T501 133q142 0 229.5 98T818 509v124q-48-71-119.5-107.5T542 489q-210 0-329.5 129.5T93 978zm197 0q0-150 66-242.5T542 643q103 0 173.5 47T818 810v172q0 163-73 251.5T540 1322q-107 0-178.5-95.5T290 978z"/><glyph unicode=":" horiz-adv-x="517" d="M161 0v202h197V0H161zm0 876v202h197V876H161z"/><glyph unicode=";" horiz-adv-x="525" d="M162 876v202h197V876H162zM99-258l70 316v163h197V48L216-258H99z"/><glyph unicode="&lt;" horiz-adv-x="1040" d="M71 486v149l816 378V812L328 579l-85-18v-6l85-19 559-228V107z"/><glyph unicode="=" horiz-adv-x="1153" d="M152 407v164h834V407H152zm0 416v164h834V823H152z"/><glyph unicode="&gt;" horiz-adv-x="1072" d="M136 87v196l598 238 85 17v6l-85 20-598 234v195l856-378V466z"/><glyph unicode="?" horiz-adv-x="974" d="M61 1122q-3 161 113.5 258t296.5 97q197 0 306-100.5T886 1096q0-129-70.5-236T629 641q-54-54-65.5-97T552 410H355q1 145 25 201t126 148q99 117 141 180t42 152q0 106-56.5 163T471 1311q-91 0-155-49.5T252 1116H64zM353 0v208h206V0H353z"/><glyph unicode="@" horiz-adv-x="1833" d="M114 478q19 423 249 688t602 265q379 0 581.5-250T1732 502q-9-214-120-368.5T1280-21q-73 0-126 41.5T1078 138q-50-80-122-119.5T788-21Q663-21 594 99.5T543 416q23 259 137.5 415.5T960 988q105 0 169-26t139-80l-4-4h6l-51-585q-9-110 21.5-151.5T1322 100q123 0 197 113.5t82 288.5q16 382-144 595.5T961 1311q-308 0-495.5-231T263 478q-18-376 150-594.5T895-335q88 0 178.5 21.5T1226-257l38-107q-67-42-170.5-65.5T891-453q-380 0-587.5 249.5T114 478zm606-62q-11-142 21.5-216T848 126q64 0 117 24.5t97 87.5q-1 12-.5 25.5t2.5 29.5l47 538q-26 12-54.5 19t-59.5 7q-125 0-191-109.5T720 416z"/><glyph unicode="A" horiz-adv-x="1295" d="m43 0 525 1456h169L1251 0h-201L922 375H374L244 0H43zm388 540h435l-212 625h-6z"/><glyph unicode="B" horiz-adv-x="1302" d="M170 0v1456h475q228 0 357-98.5t129-295.5q0-94-58-168.5T919 780q143-20 226.5-124t83.5-245q0-200-130-305.5T747 0H170zm197 154h380q135 0 209.5 66.5T1031 409q0 121-76 195t-205 79H367V154zm0 683h319q110 0 179 60.5t69 168.5q0 118-74.5 176.5T645 1301H367V837z"/><glyph unicode="C" horiz-adv-x="1297" d="M118 598v259q0 269 155.5 444.5T676 1477q247 1 393-131 142-128 142-337v-12l-2-6h-189q0 153-90 242t-254 89q-165 0-263-133t-98-330V598q0-199 98-332t263-133q164 0 254 88.5t90 244.5h189l2-6v-11q0-198-144-332Q919-21 676-21q-247 0-402.5 175T118 598z"/><glyph unicode="D" horiz-adv-x="1387" d="M170 0v1456h458q285 0 458.5-175.5T1260 827V628q0-279-173.5-453.5T628 0H170zm197 154h261q202 0 318.5 133T1063 628v201q0 206-116.5 339T628 1301H367V154z"/><glyph unicode="E" horiz-adv-x="1130" d="M170 0v1456h886v-155H367V830h598V675H367V154h700V0H170z"/><glyph unicode="F" horiz-adv-x="1130" d="M170 0v1456h913v-155H367V799h614V644H367V0H170z"/><glyph unicode="G" horiz-adv-x="1387" d="M121 578v300q0 265 159 432t410 167q243 0 384-129 137-126 137-319v-11l-2-6h-189q0 133-86 221.5T690 1322q-167 0-269-125T319 880V578q0-194 108-319.5T703 133q129 0 204.5 33.5T1020 246v328H690v154h527V196q-52-81-180.5-149T703-21q-252 0-417 167T121 578z"/><glyph unicode="H" horiz-adv-x="1441" d="M170 0v1456h197V798h707v658h197V0h-197v643H367V0H170z"/><glyph unicode="I" horiz-adv-x="579" d="M190 0v1456h198V0H190z"/><glyph unicode="J" horiz-adv-x="1123" d="m79 395 2 6h189q0-136 63-202t179-66q109 0 178 79t69 210v1034h197V422q0-203-123.5-323T512-21Q311-21 192 86 79 188 79 379v16z"/><glyph unicode="K" horiz-adv-x="1302" d="M170 0v1456h197V812h108l540 644h222l2-5-590-689L1281 5l-2-5h-239L495 658H367V0H170z"/><glyph unicode="L" horiz-adv-x="1126" d="M170 0v1456h197V154h710V0H170z"/><glyph unicode="M" horiz-adv-x="1779" d="M170 0v1456h259L892 273h6l465 1183h245V0h-197v1091l-6 1L964 0H827L373 1128l-6-1V0H170z"/><glyph unicode="N" horiz-adv-x="1442" d="M170 0v1456h197l701-1111 6 2v1109h197V0h-197L373 1112l-6-2V0H170z"/><glyph unicode="O" horiz-adv-x="1396" d="M113 598v259q0 266 159.5 443T687 1477q264 0 429.5-176.5T1282 857V598q0-267-165.5-443T687-21q-255 0-414.5 176T113 598zm197 0q0-202 102.5-330T687 140q183 0 290.5 127.5T1085 598v261q0 200-108 328t-290 128q-172 0-274.5-128T310 859V598z"/><glyph unicode="P" horiz-adv-x="1302" d="M170 0v1456h557q233 0 362.5-120t129.5-316q0-198-129.5-317T727 584H367V0H170zm197 738h360q148 0 221 79.5t73 200.5-73.5 202-220.5 81H367V738z"/><glyph unicode="Q" horiz-adv-x="1427" d="M113 598v259q0 266 159.5 443T687 1477q264 0 429.5-176.5T1282 857V598q0-115-33.5-217.5T1153 197l217-211-135-129-222 213Q943 25 861 2T687-21q-255 0-414.5 176T113 598zm197 0q0-202 102.5-330T687 140q183 0 290.5 127.5T1085 598v261q0 200-108 328t-290 128q-172 0-274.5-128T310 859V598z"/><glyph unicode="R" horiz-adv-x="1303" d="M170 0v1455h498q239 0 365-106t126-308q0-112-58.5-195T930 714q120-39 172.5-126.5T1155 371V234q0-68 15-122t52-88V0h-203q-39 34-50 100t-11 136v133q0 118-69 190t-185 72H367V0H170zm197 786h281q167 0 240.5 63.5T962 1043q0 123-71.5 190.5T668 1301H367V786z"/><glyph unicode="S" horiz-adv-x="1252" d="m114 413 2 6h188q0-137 104-211.5T643 133q140 0 221.5 63T946 367q0 99-71 166T625 647q-222 55-346.5 162T154 1078q0 171 134 285t348 114q230-1 366-131 133-127 133-294v-10l-3-6H944q0 124-86.5 205T636 1322q-138 0-211.5-67T351 1081q0-95 80.5-158.5T693 811q220-57 335-168t115-274q0-176-138.5-283T643-21Q432-21 270 97 113 211 114 401v12z"/><glyph unicode="T" horiz-adv-x="1225" d="M37 1301v155h1151v-155H708V0H511v1301H37z"/><glyph unicode="U" horiz-adv-x="1386" d="M147 489v967h197V489q0-167 95.5-261.5T686 133q160 0 260.5 94.5T1047 489v967h197V489q0-240-156-375T686-21q-237 0-388 135.5T147 489z"/><glyph unicode="V" horiz-adv-x="1295" d="M22 1456h214L612 382l33-121h6l33 121 376 1074h213L732 0H563z"/><glyph unicode="W" horiz-adv-x="1763" d="M37 1456h213l212-951 25-191 6-1 34 192 258 951h193l260-951 34-195h6l27 195 208 951h214L1375 0h-176L908 1010l-22 131h-6l-21-131L564 0H388z"/><glyph unicode="X" horiz-adv-x="1295" d="m66 0 472 734-462 722h236l338-568 340 568h238L766 734 1238 0h-235L654 578 304 0H66z"/><glyph unicode="Y" horiz-adv-x="1295" d="M40 1456h225l380-740 380 740h225L739 512V0H543v527z"/><glyph unicode="Z" horiz-adv-x="1225" d="M97 0v146l778 1155H108v155h992v-141L319 154h814V0H97z"/><glyph unicode="[" horiz-adv-x="552" d="M143-312v1976h385v-155H340V-157h188v-155H143z"/><glyph unicode="\" horiz-adv-x="846" d="M39 1456h186L833-125H647z"/><glyph unicode="]" horiz-adv-x="552" d="M11-157h189v1666H11v155h386V-312H11v155z"/><glyph unicode="^" horiz-adv-x="856" d="m61 729 299 727h134l298-727H611l-166 419-16 70h-6l-16-70-163-419H61z"/><glyph unicode="_" horiz-adv-x="931" d="M4 0h923v-154H4V0z"/><glyph unicode="`" horiz-adv-x="641" d="m82 1512 3 6h230l175-266H332z"/><glyph unicode="a" horiz-adv-x="1126" d="M106 304q0 155 125.5 242.5T572 634h214v107q0 95-58 150.5T564 947q-96 0-155-48t-59-115l-187-2-2 6v13q1 110 111 203 118 98 303 98 184 0 296-93.5T983 739V218q0-58 6-112t22-106H808q-10 49-15.5 86.5T786 162Q731 84 642.5 31.5T452-21q-169 0-257.5 86.5T106 304zm197-4q0-72 45-114t133-42q107 0 193 55t112 126v176H565q-119 0-190.5-60T303 300z"/><glyph unicode="b" d="M143 0v1560h197V954q51 72 126.5 110t176.5 38q200 0 312-160t112-421v-21q0-234-112.5-377.5T645-21q-108 0-187.5 42.5T326 147L294 0H143zm197 309q38-80 99.5-125T595 139q139 0 207 99t68 262v21q0 186-68.5 303.5T593 942q-91 0-153.5-44.5T340 778V309z"/><glyph unicode="c" horiz-adv-x="1072" d="M97 520v42q0 229 124.5 384.5T573 1102q181 0 297-112 112-108 111-264v-11l-2-6H800q0 99-64.5 168.5T573 947q-145 0-211.5-112.5T295 562v-42q0-163 65.5-275T573 133q91 0 159 60.5T800 342h178l3-6v-9q0-135-120-239Q737-20 573-21q-228 0-352 155T97 520z"/><glyph unicode="d" d="M98 500v21q0 261 111.5 421T522 1102q95 0 168.5-35T816 965v595h197V0H862l-30 137Q779 59 701 19T520-21q-198 0-310 143.5T98 500zm197 0q0-164 67-262.5T570 139q88 0 148 40t98 112v505q-38 67-98.5 106.5T572 942q-142 0-209.5-117T295 521v-21z"/><glyph unicode="e" horiz-adv-x="1072" d="M97 520v44q0 233 134.5 385.5T560 1102q217 0 325.5-135T994 608V504H302l-3-5q0-163 72-264.5T591 133q100 0 175.5 28.5T896 240l77-128q-58-56-153-94.5T591-21q-233 0-363.5 149T97 520zm210 144 2-5h488v16q0 118-58 195t-179 77q-103 0-170.5-79.5T307 664z"/><glyph unicode="f" horiz-adv-x="674" d="M56 936v146h169v137q0 173 90.5 267.5T568 1581q34 0 68.5-5.5T713 1560l-24-150q-18 4-43.5 7t-53.5 3q-86 0-128-51.5T422 1219v-137h196V936H422V0H225v936H56z"/><glyph unicode="g" d="M108 500v21q0 261 111.5 421T531 1102q103 0 181-41.5T843 941l24 141h157V-6q0-208-121-319.5T554-437q-78 0-168.5 21.5T226-357l30 153q57-30 137.5-48.5T552-271q144 0 209.5 65.5T827-6v123Q774 49 700 14T529-21q-198 0-309.5 143.5T108 500zm197 0q0-163 67-262t207-99q89 0 149 40.5T827 294v498q-38 69-99 109.5T581 942q-141 0-208.5-117T305 521v-21z"/><glyph unicode="h" d="M143 0v1560h197V937q56 78 137.5 121.5T658 1102q173 0 269.5-104t96.5-320V0H827v680q0 134-57.5 198T598 942q-88 0-153-34.5T340 811V0H143z"/><glyph unicode="i" horiz-adv-x="516" d="M159 0v1082h197V0H159zm0 1359v201h197v-201H159z"/><glyph unicode="j" horiz-adv-x="530" d="m-66-419 14 155q14-5 40-8.5t43-3.5q65 0 103.5 44T173-89v1171h197V-89q0-167-86-257.5T45-437q-31 0-56.5 4.5T-66-419zm233 1782v197h197v-197H167z"/><glyph unicode="k" horiz-adv-x="1050" d="M144 0v1560h197V656h99l325 426h236L608 583 1035 0H802L442 499H341V0H144z"/><glyph unicode="l" horiz-adv-x="516" d="M159 0v1560h197V0H159z"/><glyph unicode="m" horiz-adv-x="1790" d="M143 0v1082h176l14-142q53 77 134.5 119.5T657 1102t185.5-50T959 902q52 93 135.5 146.5T1290 1102q165 0 261-113.5t96-341.5V0h-197v649q0 160-55 226.5T1231 942q-101 0-163.5-70T994 695V0H796v649q0 152-56.5 222.5T577 942q-90 0-148-37t-89-104V0H143z"/><glyph unicode="n" d="M143 0v1082h176l14-161q54 86 135.5 133.5T654 1102q175 0 271-102.5t96-316.5V0H824v679q0 143-56.5 203T595 942q-91 0-154.5-36.5T340 803V0H143z"/><glyph unicode="o" d="M97 529v22q0 240 130 395.5T580 1102q225 0 355.5-155T1066 551v-22q0-242-130-396T582-21 227.5 133.5 97 529zm197 0q0-172 72.5-284T582 133q141 0 214 112t73 284v22q0 170-73.5 283T580 947q-141 0-213.5-113T294 551v-22z"/><glyph unicode="p" d="M143-416v1498h151l31-140q53 78 132 119t184 41q201 0 312.5-159.5T1065 521v-21q0-234-112-377.5T644-21q-100 0-175.5 33.5T340 113v-529H143zm197 691q37-67 97-104.5T584 133q140 0 212 102.5T868 500v21q0 184-72.5 302.5T582 942q-85 0-145-38.5T340 798V275z"/><glyph unicode="q" d="M98 500v21q0 261 111.5 421T522 1102q98 0 173-37.5T823 956l28 126h151V-416H805v518q-52-61-123-92T520-21q-198 0-310 143.5T98 500zm197 0q0-164 67.5-265.5T570 133q81 0 138.5 36T805 270v546q-39 61-96.5 96T572 947q-141 0-209-119.5T295 521v-21z"/><glyph unicode="r" horiz-adv-x="717" d="M143 0v1082h176l19-158q46 84 113.5 131t155.5 47q22 0 42-3.5t33-7.5l-27-183-101 6q-78 0-131.5-37T340 773V0H143z"/><glyph unicode="s" horiz-adv-x="1071" d="m109 329 2 6h188q5-105 78-153.5T548 133q105 0 164.5 44.5T772 291q0 65-49.5 106T535 469q-191 41-293.5 115T139 782q0 132 112.5 226t291.5 94q184 0 298-100 109-96 109-222v-11l-2-6H760q0 70-61.5 127T543 947q-104 0-155.5-47T336 788q0-64 44.5-99T564 625q199-42 302-119t103-201q0-144-116.5-235T548-21Q341-21 222 84 109 184 109 316v13z"/><glyph unicode="t" horiz-adv-x="690" d="M48 936v146h172v261h197v-261h205V936H417V279q0-76 31.5-107t83.5-31q17 0 38 4.5t35 9.5l27-135Q610 2 567-9.5T482-21q-120 0-191 72.5T220 279v657H48z"/><glyph unicode="u" d="M139 444v638h197V442q0-173 51-238t159-65q105 0 173.5 42.5T823 302v780h197V0H843l-13 160Q779 73 699 26T514-21Q337-21 238 92t-99 352z"/><glyph unicode="v" horiz-adv-x="1030" d="M46 1082h202l256-763 17-76h6l19 76 249 763h201L598 0H449z"/><glyph unicode="w" horiz-adv-x="1550" d="M45 1082h205l170-688 25-139h6l26 139 216 688h158l217-688 28-155h6l32 155 160 688h206L1186 0h-159L813 659l-41 172h-6l-38-172L518 0H359z"/><glyph unicode="x" horiz-adv-x="1030" d="m46 0 361 547-351 535h227l227-399 230 399h230L619 547 980 0H754L514 409 274 0H46z"/><glyph unicode="y" horiz-adv-x="1030" d="M26 1082h220l228-681 35-136h6l266 817h219L545-166q-41-109-117.5-190T221-437q-24 0-61 5.5T103-421l20 155q-6 1 35.5-2t52.5-3q63 0 103 56t67 124l47 113z"/><glyph unicode="z" horiz-adv-x="1030" d="M94 0v138l585 788H101v156h819V948L329 154h625V0H94z"/><glyph unicode="{" horiz-adv-x="696" d="M63 543v147q106 0 157.5 61.5T272 926v206q0 171 82 290.5T631 1597l40-117q-110-35-156-125.5T469 1132V926q0-105-42.5-185T299 616q85-46 127.5-126.5T469 306V101q0-132 46-221.5T671-246l-40-118q-195 55-277 175t-82 290v205q0 112-51.5 174.5T63 543z"/><glyph unicode="|" horiz-adv-x="507" d="M145-270v1726h197V-270H145z"/><glyph unicode="}" horiz-adv-x="696" d="M21-246q109 36 156 125.5T224 101v205q0 107 45 187t139 123q-94 41-139 121t-45 189v206q0 132-47 222.5T21 1480l41 117q194-55 276.5-174.5T421 1132V926q0-113 50.5-174.5T630 690V543q-108 0-158.5-62.5T421 306V101q0-170-82.5-290T62-364z"/><glyph unicode="~" horiz-adv-x="1391" d="M128 474q0 136 85.5 232.5T431 803q88 0 163-34.5T754 664q58-51 106-74t100-23q66 0 114.5 57t48.5 134l141-18q0-137-87-238T960 401q-90 0-163.5 33T638 541q-59 48-108 72t-99 24q-67 0-114.5-53T269 456z"/><glyph unicode="¡" horiz-adv-x="507" d="M144-374v978h197v-978H144zm0 1250v206h197V876H144z"/><glyph unicode="¢" horiz-adv-x="1122" d="M97 520v42q0 202 99 350t282 181v225h198v-227q140-30 225-134.5T983 714l-3-5H800q0 99-64.5 168.5T573 947q-145 0-211.5-112.5T295 562v-42q0-163 65.5-275T573 133q91 0 159 60.5T800 342h180l2-5q3-116-86-215T676-8v-237H478v233Q294 19 195.5 167T97 520z"/><glyph unicode="£" horiz-adv-x="1194" d="M70 615v155h158l-10 270q0 204 112 320.5T630 1477q200 0 310-104.5t106-276.5l-2-6H854q0 118-63 175t-161 57q-99 0-157-74.5T415 1040l10-270h418V615H430l6-149q0-90-15.5-171.5T376 154h735l-1-154H134v154h10q48 13 72 111t24 201l-6 149H70z"/><glyph unicode="¤" horiz-adv-x="1456" d="m104 112 138 140q-50 76-76.5 166.5T139 608q0 102 28.5 196T250 976l-146 149 139 139 143-146q74 55 163 85.5t185 30.5q97 0 186-31t164-87l146 149 140-140-150-153q52-78 80.5-170.5T1329 608q0-98-26.5-187.5T1228 255l142-143-140-139-133 135q-77-62-169.5-95T734-20 540.5 12.5 373 106L243-26zm217 496q0-188 120.5-320.5T734 155q170 0 290.5 132.5T1145 608q0 186-120.5 318T734 1058q-172 0-292.5-132T321 608z"/><glyph unicode="¥" horiz-adv-x="1243" d="M30 1456h226l359-663 360 663h224L781 738h312V615H710V448h383V326H710V0H513v326H138v122h375v167H138v123h311z"/><glyph unicode="¦" horiz-adv-x="499" d="M145-270v792h197v-792H145zm0 968v758h197V698H145z"/><glyph unicode="§" horiz-adv-x="1259" d="M94 551q0 91 47 161.5T275 824q-68 50-102 119.5T139 1110q0 166 134 266.5T631 1477q233 0 363-111.5t126-313.5l-3-6H929q0 118-79 197t-219 79q-145 0-220-59.5T336 1112q0-99 67-148.5T681 856q244-69 355.5-159.5T1148 431q0-94-48-164T965 157q69-51 104-119t35-166q0-172-133-269.5T613-495q-221 0-372 102.5T95-70l2 6 188 2q0-143 96.5-210.5T613-340q137 0 215.5 59.5T907-130 835 11.5 559 125q-239 63-352 156T94 551zm197 2q0-100 68-151.5T637 291q56-17 93-28t70-23q72 20 112 69.5T952 428q0 91-73.5 144.5T603 689q-47 12-88.5 24.5T437 741q-73-19-109.5-69T291 553z"/><glyph unicode="¨" horiz-adv-x="1021" d="M170 1256v200h219v-200H170zm470 0v200h219v-200H640z"/><glyph unicode="©" horiz-adv-x="1604" d="M88 729q0 315 207 531t503 216q295 0 502-216t207-531q0-316-207.5-533T798-21q-296 0-503 217T88 729zm121 0q0-265 171.5-447T798 100q245 0 417 182t172 447q0 263-172 444t-417 181q-246 0-417.5-181T209 729zm227-60v119q0 173 94 280t254 107q157 0 245.5-79t84.5-228l-2-6H966q0 95-45.5 138.5T784 1044q-94 0-145-70.5T588 789V669q0-117 51-187t145-70q91 0 136 43t45 141h146l2-6q4-151-84-229.5T784 282q-160 0-254 106.5T436 669z"/><glyph unicode="ª" horiz-adv-x="917" d="M120 920q0 110 84.5 170t245.5 60h139v52q0 63-30 97t-88 34q-67 0-103.5-27t-36.5-76l-162 13-1 6q-6 98 78.5 163t224.5 65q134 0 212-71t78-205V887q0-50 6-94t20-87H613q-8 21-13 45t-8 50q-33-47-89.5-78T369 692q-119 0-184 61t-65 167zm173 4q0-45 29-69t89-24q51 0 105.5 30t72.5 65v110H451q-75 0-116.5-33T293 924z"/><glyph unicode="«" horiz-adv-x="966" d="M97 506v19l295 389h148L285 515l255-398H392zm335 0v19l295 389h148L620 515l255-398H727z"/><glyph unicode="¬" horiz-adv-x="1137" d="M127 637v165h835V375H764v262H127z"/><glyph unicode="­" horiz-adv-x="923" d="M167 538v154h590V538H167z"/><glyph unicode="®" horiz-adv-x="1604" d="M88 729q0 315 207 531t503 216q295 0 502-216t207-531q0-316-207.5-533T798-21q-296 0-503 217T88 729zm121 0q0-266 171.5-447.5T798 100q244 0 416 182t172 447q0 264-171.5 444.5T798 1354q-246 0-417.5-180.5T209 729zm295-413v850h280q152 0 238.5-65.5T1109 909q0-62-33-109t-96-78q66-26 95.5-79t29.5-128v-56q0-41 3.5-73.5T1122 332v-16H969q-9 21-11 61.5t-2 82.5v54q0 72-33.5 106T812 654H653V316H504zm149 468h152q65 1 110.5 32.5T961 904q0 73-39.5 102.5T784 1036H653V784z"/><glyph unicode="¯" horiz-adv-x="950" d="M123 1310v146h721v-146H123z"/><glyph unicode="ˉ" horiz-adv-x="950" d="M123 1310v146h721v-146H123z"/><glyph unicode="°" horiz-adv-x="763" d="M128 1216q0 106 76 183.5t181 77.5q103 0 177.5-77.5T637 1216q0-108-74-182.5T385 959q-106 0-181.5 74.5T128 1216zm131 0q0-55 36.5-91t89.5-36q52 0 87.5 36t35.5 91-36 92.5-87 37.5q-53 0-89.5-37.5T259 1216z"/><glyph unicode="±" horiz-adv-x="1097" d="M99 702v154h381v411h177V856h358V702H657V289H480v413H99zM136 4v155h835V4H136z"/><glyph unicode="²" horiz-adv-x="868" d="M119 1240q-6 99 78 169t225 70q135 0 211-64t76-180q0-80-44.5-136T504 938L351 803l2-6h361V667H122v130l302 262q69 60 91 97.5t22 79.5q0 50-28.5 81t-86.5 31q-67 0-103.5-32t-36.5-82H121z"/><glyph unicode="³" horiz-adv-x="876" d="m112 882 1 6h163q0-46 37.5-74.5T414 785q72 0 114 29.5t42 77.5q0 62-36.5 90.5T424 1011H292v126h132q67 0 99.5 28.5T556 1246q0 43-36.5 72T414 1347q-56 0-90.5-24t-34.5-64H127l-2 6q-6 94 78.5 153.5T414 1478q145 0 229-59.5t84-169.5q0-55-35.5-100.5T594 1077q70-23 108-71t38-116q0-111-90-173t-236-62q-127 0-217.5 58T112 882z"/><glyph unicode="´" horiz-adv-x="654" d="m131 1252 185 266h230l2-6-269-260H131z"/><glyph unicode="µ" d="M153-416v1498h196V440q2-178 57.5-242.5T562 133q98 0 158.5 36T813 275v807h197V0H833l-9 108q-44-63-107.5-96T570-21q-72 0-126.5 16.5T349 47v-463H153z"/><glyph unicode="¶" horiz-adv-x="1006" d="M63 988q0 207 129.5 337.5T555 1456h281V0H639v520h-84q-233 0-362.5 129.5T63 988z"/><glyph unicode="·" horiz-adv-x="540" d="M161 624v212h198V624H161z"/><glyph unicode="¸" horiz-adv-x="509" d="M119-326q72 0 116 24.5t44 73.5q0 48-36 67t-123 26L152 0h140l-12-52q65-11 108-52t43-121q0-96-79-153t-226-57z"/><glyph unicode="¹" horiz-adv-x="557" d="M95 1320v134l301 23V665H222v655H95z"/><glyph unicode="º" horiz-adv-x="933" d="M120 1025v117q0 148 94 241.5t251 93.5q158 0 252-93.5t94-241.5v-117q0-149-93.5-241.5T467 691q-158 0-252.5 92.5T120 1025zm173 0q0-88 44-140.5T467 832q83 0 127.5 53t44.5 140v117q0 84-45 137.5T465 1333t-128-53.5-44-137.5v-117z"/><glyph unicode="»" horiz-adv-x="966" d="m116 170 231 380-231 380h148l278-357h5l1-9 5-5-2-9 2-9-5-6-1-7h-4L264 170H116zm346 0 231 380-231 380h148l278-357h5l1-9 5-5-2-9 2-9-5-6-1-7h-4L610 170H462z"/><glyph unicode="¼" horiz-adv-x="1595" d="M184 1319v134l301 23V664H311v655H184zM339 185l711 1138 109-67L448 118zm446 69 422 547h173V282h126V152h-126V0h-170v152H793zm182 28h243v310l-6 1-13-22z"/><glyph unicode="½" horiz-adv-x="1708" d="m352 185 711 1138 109-67L461 118zM184 1319v134l301 23V664H311v655H184zm746-746q-6 99 78 169t225 70q135 0 211-64t76-180q0-80-44.5-136T1315 271l-153-135 2-6h361V0H933v130l302 262q69 60 91 97.5t22 79.5q0 50-28.5 81t-86.5 31q-67 0-103.5-32t-36.5-82H932z"/><glyph unicode="¾" horiz-adv-x="1781" d="m522 185 711 1138 109-67L631 118zm452 69 422 547h173V282h126V152h-126V0h-170v152H982zm182 28h243v310l-6 1-13-22zM128 883l1 6h163q0-46 37.5-74.5T430 786q72 0 114 29.5t42 77.5q0 62-36.5 90.5T440 1012H308v126h132q67 0 99.5 28.5T572 1247q0 43-36.5 72T430 1348q-56 0-90.5-24t-34.5-64H143l-2 6q-6 94 78.5 153.5T430 1479q145 0 229-59.5t84-169.5q0-55-35.5-100.5T610 1078q70-23 108-71t38-116q0-111-90-173t-236-62q-127 0-217.5 58T128 883z"/><glyph unicode="¿" horiz-adv-x="1013" d="M114-13q0 127 70 233.5T371 441q53 53 65 96t12 135h197q-2-146-26-202T494 323Q394 205 352.5 142T311-8q0-106 56-163t162-57q90 0 154.5 49.5T748-33h188l3-6q2-161-114.5-258T529-394q-198 0-306.5 100.5T114-13zm327 887v209h206V874H441z"/><glyph unicode="À" horiz-adv-x="1295" d="m43 0 525 1456h169L1251 0h-201L922 375H374L244 0H43zm388 540h435l-212 625h-6zM323 1861l3 6h230l175-266H573z"/><glyph unicode="Á" horiz-adv-x="1295" d="m43 0 525 1456h169L1251 0h-201L922 375H374L244 0H43zm388 540h435l-212 625h-6zm127 1057 185 266h230l2-6-269-260H558z"/><glyph unicode="Â" horiz-adv-x="1295" d="m43 0 525 1456h169L1251 0h-201L922 375H374L244 0H43zm388 540h435l-212 625h-6zm-89 1061v26l246 237h120l248-238v-25H795l-147 148-146-148H342z"/><glyph unicode="Ã" horiz-adv-x="1295" d="m43 0 525 1456h169L1251 0h-201L922 375H374L244 0H43zm388 540h435l-212 625h-6zM301 1628q0 93 59 161.5t150 68.5q56 0 140-47t136-47q41 0 71 32.5t30 79.5l108-32q0-94-59.5-159T786 1620q-71 0-148 46.5T510 1713q-43 0-72-32.5t-29-78.5z"/><glyph unicode="Ä" horiz-adv-x="1295" d="m43 0 525 1456h169L1251 0h-201L922 375H374L244 0H43zm388 540h435l-212 625h-6zM304 1605v200h219v-200H304zm470 0v200h219v-200H774z"/><glyph unicode="Å" horiz-adv-x="1295" d="m43 0 525 1456h169L1251 0h-201L922 375H374L244 0H43zm388 540h435l-212 625h-6zm40 1194q0 72 51.5 120.5T647 1903q72 0 122.5-48.5T820 1734q0-73-50.5-118.5T647 1570q-74 0-125 46t-51 118zm100 0q0-31 22.5-52.5T647 1660q30 0 51.5 21t21.5 53-21.5 54.5T647 1811q-32 0-54-22.5t-22-54.5z"/><glyph unicode="Æ" horiz-adv-x="1999" d="m14 0 881 1456h967v-155h-691l20-466h590V680h-584l22-526h705V0h-895l-15 350H457L256 0H14zm546 529h447l-31 710-5 2z"/><glyph unicode="Ç" horiz-adv-x="1297" d="M118 598v259q0 269 155.5 444.5T676 1477q247 1 393-131 142-128 142-337v-12l-2-6h-189q0 153-90 242t-254 89q-165 0-263-133t-98-330V598q0-199 98-332t263-133q164 0 254 88.5t90 244.5h189l2-6v-11q0-198-144-332Q919-21 676-21q-247 0-402.5 175T118 598zm463-933q72 0 116 24.5t44 73.5q0 48-36 67t-123 26L614-9h140l-12-52q65-11 108-52t43-121q0-96-79-153t-226-57z"/><glyph unicode="È" horiz-adv-x="1130" d="M170 0v1456h886v-155H367V830h598V675H367V154h700V0H170zm124 1861 3 6h230l175-266H544z"/><glyph unicode="É" horiz-adv-x="1130" d="M170 0v1456h886v-155H367V830h598V675H367V154h700V0H170zm359 1597 185 266h230l2-6-269-260H529z"/><glyph unicode="Ê" horiz-adv-x="1130" d="M170 0v1456h886v-155H367V830h598V675H367V154h700V0H170zm143 1601v26l246 237h120l248-238v-25H766l-147 148-146-148H313z"/><glyph unicode="Ë" horiz-adv-x="1130" d="M170 0v1456h886v-155H367V830h598V675H367V154h700V0H170zm105 1605v200h219v-200H275zm470 0v200h219v-200H745z"/><glyph unicode="Ì" horiz-adv-x="579" d="M190 0v1456h198V0H190zM-35 1861l3 6h230l175-266H215z"/><glyph unicode="Í" horiz-adv-x="579" d="M190 0v1456h198V0H190zm9 1597 185 266h230l2-6-269-260H199z"/><glyph unicode="Î" horiz-adv-x="579" d="M190 0v1456h198V0H190zM-16 1601v26l246 237h120l248-238v-25H437l-147 148-146-148H-16z"/><glyph unicode="Ï" horiz-adv-x="579" d="M190 0v1456h198V0H190zM-54 1605v200h219v-200H-54zm470 0v200h219v-200H416z"/><glyph unicode="Ð" horiz-adv-x="1387" d="M2 663v155h168v638h458q285 0 458.5-175.5T1260 827V628q0-279-173.5-453.5T628 0H170v663H2zm365-509h261q202 0 318.5 133T1063 628v201q0 206-116.5 339T628 1301H367V818h276V663H367V154z"/><glyph unicode="Ñ" horiz-adv-x="1442" d="M170 0v1456h197l701-1111 6 2v1109h197V0h-197L373 1112l-6-2V0H170zm202 1628q0 93 59 161.5t150 68.5q56 0 140-47t136-47q41 0 71 32.5t30 79.5l108-32q0-94-59.5-159T857 1620q-71 0-148 46.5T581 1713q-43 0-72-32.5t-29-78.5z"/><glyph unicode="Ò" horiz-adv-x="1396" d="M113 598v259q0 266 159.5 443T687 1477q264 0 429.5-176.5T1282 857V598q0-267-165.5-443T687-21q-255 0-414.5 176T113 598zm197 0q0-202 102.5-330T687 140q183 0 290.5 127.5T1085 598v261q0 200-108 328t-290 128q-172 0-274.5-128T310 859V598zm63 1284 3 6h230l175-266H623z"/><glyph unicode="Ó" horiz-adv-x="1396" d="M113 598v259q0 266 159.5 443T687 1477q264 0 429.5-176.5T1282 857V598q0-267-165.5-443T687-21q-255 0-414.5 176T113 598zm197 0q0-202 102.5-330T687 140q183 0 290.5 127.5T1085 598v261q0 200-108 328t-290 128q-172 0-274.5-128T310 859V598zm298 1020 185 266h230l2-6-269-260H608z"/><glyph unicode="Ô" horiz-adv-x="1396" d="M113 598v259q0 266 159.5 443T687 1477q264 0 429.5-176.5T1282 857V598q0-267-165.5-443T687-21q-255 0-414.5 176T113 598zm197 0q0-202 102.5-330T687 140q183 0 290.5 127.5T1085 598v261q0 200-108 328t-290 128q-172 0-274.5-128T310 859V598zm82 1024v26l246 237h120l248-238v-25H845l-147 148-146-148H392z"/><glyph unicode="Õ" horiz-adv-x="1396" d="M113 598v259q0 266 159.5 443T687 1477q264 0 429.5-176.5T1282 857V598q0-267-165.5-443T687-21q-255 0-414.5 176T113 598zm197 0q0-202 102.5-330T687 140q183 0 290.5 127.5T1085 598v261q0 200-108 328t-290 128q-172 0-274.5-128T310 859V598zm41 1051q0 93 59 161.5t150 68.5q56 0 140-47t136-47q41 0 71 32.5t30 79.5l108-32q0-94-59.5-159T836 1641q-71 0-148 46.5T560 1734q-43 0-72-32.5t-29-78.5z"/><glyph unicode="Ö" horiz-adv-x="1396" d="M113 598v259q0 266 159.5 443T687 1477q264 0 429.5-176.5T1282 857V598q0-267-165.5-443T687-21q-255 0-414.5 176T113 598zm197 0q0-202 102.5-330T687 140q183 0 290.5 127.5T1085 598v261q0 200-108 328t-290 128q-172 0-274.5-128T310 859V598zm44 1028v200h219v-200H354zm470 0v200h219v-200H824z"/><glyph unicode="×" horiz-adv-x="1096" d="m88 351 327 334-327 334 126 126 326-333 327 333 126-126-328-334 328-334-126-126-327 332-326-332z"/><glyph unicode="Ø" horiz-adv-x="1396" d="M113 598v259q0 266 159.5 443T687 1477q94 0 178.5-25.5T1022 1380l81 137h149l-132-221q77-84 119.5-197t42.5-242V598q0-267-165.5-443T687-21Q602-21 526.5-.5T387 60L296-94H147l139 234q-84 84-128.5 202T113 598zm197 0q0-85 19-158t54-125l6-1 544 916q-50 41-112 63t-134 22q-172 0-274.5-128T310 859V598zm165-390q44-34 97-51t115-17q183 0 290.5 127.5T1085 598v261q0 75-16.5 142t-46.5 117l-6 1z"/><glyph unicode="Ù" horiz-adv-x="1386" d="M147 489v967h197V489q0-167 95.5-261.5T686 133q160 0 260.5 94.5T1047 489v967h197V489q0-240-156-375T686-21q-237 0-388 135.5T147 489zm225 1372 3 6h230l175-266H622z"/><glyph unicode="Ú" horiz-adv-x="1386" d="M147 489v967h197V489q0-167 95.5-261.5T686 133q160 0 260.5 94.5T1047 489v967h197V489q0-240-156-375T686-21q-237 0-388 135.5T147 489zm460 1108 185 266h230l2-6-269-260H607z"/><glyph unicode="Û" horiz-adv-x="1386" d="M147 489v967h197V489q0-167 95.5-261.5T686 133q160 0 260.5 94.5T1047 489v967h197V489q0-240-156-375T686-21q-237 0-388 135.5T147 489zm244 1112v26l246 237h120l248-238v-25H844l-147 148-146-148H391z"/><glyph unicode="Ü" horiz-adv-x="1386" d="M147 489v967h197V489q0-167 95.5-261.5T686 133q160 0 260.5 94.5T1047 489v967h197V489q0-240-156-375T686-21q-237 0-388 135.5T147 489zm206 1116v200h219v-200H353zm470 0v200h219v-200H823z"/><glyph unicode="Ý" horiz-adv-x="1295" d="M40 1456h225l380-740 380 740h225L739 512V0H543v527zm516 140 185 266h230l2-6-269-260H556z"/><glyph unicode="Þ" horiz-adv-x="1209" d="M163 0v1456h197v-293h269q232 0 362-118t130-307q0-190-130-307.5T629 313H360V0H163zm197 467h269q147 0 220.5 78T923 736q0 114-73.5 193.5T629 1009H360V467z"/><glyph unicode="ß" horiz-adv-x="1221" d="M137 0v1082q0 223 117.5 348T555 1555q161 0 262-86t101-253q0-118-64.5-228T789 821q0-82 173.5-224T1136 316q0-167-104.5-252T749-21Q665-21 576.5-.5T451 50l44 159q43-28 108-52t126-24q108 0 159 47.5T939 306q0 84-173.5 227.5T592 823q0 80 70.5 190.5T733 1200q0 93-51 147t-117 54q-104 0-168-83.5T333 1082V0H137z"/><glyph unicode="à" horiz-adv-x="1126" d="M106 304q0 155 125.5 242.5T572 634h214v107q0 95-58 150.5T564 947q-96 0-155-48t-59-115l-187-2-2 6v13q1 110 111 203 118 98 303 98 184 0 296-93.5T983 739V218q0-58 6-112t22-106H808q-10 49-15.5 86.5T786 162Q731 84 642.5 31.5T452-21q-169 0-257.5 86.5T106 304zm197-4q0-72 45-114t133-42q107 0 193 55t112 126v176H565q-119 0-190.5-60T303 300zm-73 1239 3 6h230l175-266H480z"/><glyph unicode="á" horiz-adv-x="1126" d="M106 304q0 155 125.5 242.5T572 634h214v107q0 95-58 150.5T564 947q-96 0-155-48t-59-115l-187-2-2 6v13q1 110 111 203 118 98 303 98 184 0 296-93.5T983 739V218q0-58 6-112t22-106H808q-10 49-15.5 86.5T786 162Q731 84 642.5 31.5T452-21q-169 0-257.5 86.5T106 304zm197-4q0-72 45-114t133-42q107 0 193 55t112 126v176H565q-119 0-190.5-60T303 300zm162 975 185 266h230l2-6-269-260H465z"/><glyph unicode="â" horiz-adv-x="1126" d="M106 304q0 155 125.5 242.5T572 634h214v107q0 95-58 150.5T564 947q-96 0-155-48t-59-115l-187-2-2 6v13q1 110 111 203 118 98 303 98 184 0 296-93.5T983 739V218q0-58 6-112t22-106H808q-10 49-15.5 86.5T786 162Q731 84 642.5 31.5T452-21q-169 0-257.5 86.5T106 304zm197-4q0-72 45-114t133-42q107 0 193 55t112 126v176H565q-119 0-190.5-60T303 300zm-54 979v26l246 237h120l248-238v-25H702l-147 148-146-148H249z"/><glyph unicode="ã" horiz-adv-x="1126" d="M106 304q0 155 125.5 242.5T572 634h214v107q0 95-58 150.5T564 947q-96 0-155-48t-59-115l-187-2-2 6v13q1 110 111 203 118 98 303 98 184 0 296-93.5T983 739V218q0-58 6-112t22-106H808q-10 49-15.5 86.5T786 162Q731 84 642.5 31.5T452-21q-169 0-257.5 86.5T106 304zm197-4q0-72 45-114t133-42q107 0 193 55t112 126v176H565q-119 0-190.5-60T303 300zm-95 1006q0 93 59 161.5t150 68.5q56 0 140-47t136-47q41 0 71 32.5t30 79.5l108-32q0-94-59.5-159T693 1298q-71 0-148 46.5T417 1391q-43 0-72-32.5t-29-78.5z"/><glyph unicode="ä" horiz-adv-x="1126" d="M106 304q0 155 125.5 242.5T572 634h214v107q0 95-58 150.5T564 947q-96 0-155-48t-59-115l-187-2-2 6v13q1 110 111 203 118 98 303 98 184 0 296-93.5T983 739V218q0-58 6-112t22-106H808q-10 49-15.5 86.5T786 162Q731 84 642.5 31.5T452-21q-169 0-257.5 86.5T106 304zm197-4q0-72 45-114t133-42q107 0 193 55t112 126v176H565q-119 0-190.5-60T303 300zm-92 983v200h219v-200H211zm470 0v200h219v-200H681z"/><glyph unicode="å" horiz-adv-x="1126" d="M106 304q0 155 125.5 242.5T572 634h214v107q0 95-58 150.5T564 947q-96 0-155-48t-59-115l-187-2-2 6v13q1 110 111 203 118 98 303 98 184 0 296-93.5T983 739V218q0-58 6-112t22-106H808q-10 49-15.5 86.5T786 162Q731 84 642.5 31.5T452-21q-169 0-257.5 86.5T106 304zm197-4q0-72 45-114t133-42q107 0 193 55t112 126v176H565q-119 0-190.5-60T303 300zm75 1112q0 72 51.5 120.5T554 1581q72 0 122.5-48.5T727 1412q0-73-50.5-118.5T554 1248q-74 0-125 46t-51 118zm100 0q0-31 22.5-52.5T554 1338q30 0 51.5 21t21.5 53-21.5 54.5T554 1489q-32 0-54-22.5t-22-54.5z"/><glyph unicode="æ" horiz-adv-x="1789" d="M88 304q0 157 115 243t335 86h229v87q0 106-52 166.5T566 947q-103 0-164-55t-61-133l-188 18-2 6q-5 138 110 228.5t305 90.5q114 0 201.5-40.5T905 944q64 75 151.5 116.5T1245 1102q214 0 329.5-130T1690 614V495H981l-2-5q1-159 79.5-258t233.5-99q103 0 169.5 27.5T1606 239l67-138q-53-44-147-83t-234-39q-136 0-240 48.5T882 166Q826 87 714.5 33T443-21q-170 0-262.5 87T88 304zm197-4q0-74 50-120.5T482 133q76 0 159 43.5T767 277v214H540q-120 0-187.5-55.5T285 300zm698 345 2-5h508v31q0 122-60 199t-188 77q-113 0-182-84.5T983 645z"/><glyph unicode="ç" horiz-adv-x="1072" d="M97 520v42q0 229 124.5 384.5T573 1102q181 0 297-112 112-108 111-264v-11l-2-6H800q0 99-64.5 168.5T573 947q-145 0-211.5-112.5T295 562v-42q0-163 65.5-275T573 133q91 0 159 60.5T800 342h178l3-6v-9q0-135-120-239Q737-20 573-21q-228 0-352 155T97 520zm353-855q72 0 116 24.5t44 73.5q0 48-36 67t-123 26L483-9h140l-12-52q65-11 108-52t43-121q0-96-79-153t-226-57z"/><glyph unicode="è" horiz-adv-x="1072" d="M97 520v44q0 233 134.5 385.5T560 1102q217 0 325.5-135T994 608V504H302l-3-5q0-163 72-264.5T591 133q100 0 175.5 28.5T896 240l77-128q-58-56-153-94.5T591-21q-233 0-363.5 149T97 520zm210 144 2-5h488v16q0 118-58 195t-179 77q-103 0-170.5-79.5T307 664zm-93 876 3 6h230l175-266H464z"/><glyph unicode="é" horiz-adv-x="1072" d="M97 520v44q0 233 134.5 385.5T560 1102q217 0 325.5-135T994 608V504H302l-3-5q0-163 72-264.5T591 133q100 0 175.5 28.5T896 240l77-128q-58-56-153-94.5T591-21q-233 0-363.5 149T97 520zm210 144 2-5h488v16q0 118-58 195t-179 77q-103 0-170.5-79.5T307 664zm142 612 185 266h230l2-6-269-260H449z"/><glyph unicode="ê" horiz-adv-x="1072" d="M97 520v44q0 233 134.5 385.5T560 1102q217 0 325.5-135T994 608V504H302l-3-5q0-163 72-264.5T591 133q100 0 175.5 28.5T896 240l77-128q-58-56-153-94.5T591-21q-233 0-363.5 149T97 520zm210 144 2-5h488v16q0 118-58 195t-179 77q-103 0-170.5-79.5T307 664zm-74 616v26l246 237h120l248-238v-25H686l-147 148-146-148H233z"/><glyph unicode="ë" horiz-adv-x="1072" d="M97 520v44q0 233 134.5 385.5T560 1102q217 0 325.5-135T994 608V504H302l-3-5q0-163 72-264.5T591 133q100 0 175.5 28.5T896 240l77-128q-58-56-153-94.5T591-21q-233 0-363.5 149T97 520zm210 144 2-5h488v16q0 118-58 195t-179 77q-103 0-170.5-79.5T307 664zm-112 620v200h219v-200H195zm470 0v200h219v-200H665z"/><glyph unicode="ì" horiz-adv-x="515" d="M153 0v1082h197V0H153zM-72 1518l3 6h230l175-266H178z"/><glyph unicode="í" horiz-adv-x="515" d="M153 0v1082h197V0H153zm9 1254 185 266h230l2-6-269-260H162z"/><glyph unicode="î" horiz-adv-x="515" d="M153 0v1082h197V0H153zM-53 1258v26l246 237h120l248-238v-25H400l-147 148-146-148H-53z"/><glyph unicode="ï" horiz-adv-x="515" d="M153 0v1082h197V0H153zM-91 1262v200h219v-200H-91zm470 0v200h219v-200H379z"/><glyph unicode="ð" horiz-adv-x="1202" d="M72 466q0 228 138 370t351 142q90 0 169.5-37T862 844l4 5q-9 109-51.5 197T704 1200l-290-165-77 102 256 146q-39 22-80.5 39t-85.5 31l60 164q79-19 151-52t135-79l218 125 77-102-195-112q95-104 147-241.5t52-300.5V535q0-245-144-400.5T569-21q-218 0-357.5 140T72 466zm197 0q0-132 82-232.5T573 133q133 0 217.5 114T875 535v148q-35 59-115.5 99.5T561 823q-131 0-211.5-104T269 466z"/><glyph unicode="ñ" d="M143 0v1082h176l14-161q54 86 135.5 133.5T654 1102q175 0 271-102.5t96-316.5V0H824v679q0 143-56.5 203T595 942q-91 0-154.5-36.5T340 803V0H143zm88 1306q0 93 59 161.5t150 68.5q56 0 140-47t136-47q41 0 71 32.5t30 79.5l108-32q0-94-59.5-159T716 1298q-71 0-148 46.5T440 1391q-43 0-72-32.5t-29-78.5z"/><glyph unicode="ò" d="M97 529v22q0 240 130 395.5T580 1102q225 0 355.5-155T1066 551v-22q0-242-130-396T582-21 227.5 133.5 97 529zm197 0q0-172 72.5-284T582 133q141 0 214 112t73 284v22q0 170-73.5 283T580 947q-141 0-213.5-113T294 551v-22zm-37 1010 3 6h230l175-266H507z"/><glyph unicode="ó" d="M97 529v22q0 240 130 395.5T580 1102q225 0 355.5-155T1066 551v-22q0-242-130-396T582-21 227.5 133.5 97 529zm197 0q0-172 72.5-284T582 133q141 0 214 112t73 284v22q0 170-73.5 283T580 947q-141 0-213.5-113T294 551v-22zm198 746 185 266h230l2-6-269-260H492z"/><glyph unicode="ô" d="M97 529v22q0 240 130 395.5T580 1102q225 0 355.5-155T1066 551v-22q0-242-130-396T582-21 227.5 133.5 97 529zm197 0q0-172 72.5-284T582 133q141 0 214 112t73 284v22q0 170-73.5 283T580 947q-141 0-213.5-113T294 551v-22zm-18 750v26l246 237h120l248-238v-25H729l-147 148-146-148H276z"/><glyph unicode="õ" d="M97 529v22q0 240 130 395.5T580 1102q225 0 355.5-155T1066 551v-22q0-242-130-396T582-21 227.5 133.5 97 529zm197 0q0-172 72.5-284T582 133q141 0 214 112t73 284v22q0 170-73.5 283T580 947q-141 0-213.5-113T294 551v-22zm-59 777q0 93 59 161.5t150 68.5q56 0 140-47t136-47q41 0 71 32.5t30 79.5l108-32q0-94-59.5-159T720 1298q-71 0-148 46.5T444 1391q-43 0-72-32.5t-29-78.5z"/><glyph unicode="ö" d="M97 529v22q0 240 130 395.5T580 1102q225 0 355.5-155T1066 551v-22q0-242-130-396T582-21 227.5 133.5 97 529zm197 0q0-172 72.5-284T582 133q141 0 214 112t73 284v22q0 170-73.5 283T580 947q-141 0-213.5-113T294 551v-22zm-56 754v200h219v-200H238zm470 0v200h219v-200H708z"/><glyph unicode="÷" horiz-adv-x="1170" d="M71 597v188h998V597H71zm401-417v203h198V180H472zm0 819v203h198V999H472z"/><glyph unicode="ø" d="M97 529v22q0 240 130 395.5T580 1102q56 0 107.5-11t97.5-31l74 149h129L884 998q88-74 135-190t47-257v-22q0-242-130-396T582-21q-51 0-97 8.5T397 12l-72-147H196L296 69q-96 71-147.5 191T97 529zm197 0q0-91 20-166.5T375 239h6l332 674q-29 16-62.5 25t-70.5 9q-141 0-213.5-113T294 551v-22zm175-373q24-12 52-17.5t61-5.5q141 0 214 112t73 284v22q0 80-17.5 150.5T802 819h-6z"/><glyph unicode="ù" d="M139 444v638h197V442q0-173 51-238t159-65q105 0 173.5 42.5T823 302v780h197V0H843l-13 160Q779 73 699 26T514-21Q337-21 238 92t-99 352zm116 1074 3 6h230l175-266H505z"/><glyph unicode="ú" d="M139 444v638h197V442q0-173 51-238t159-65q105 0 173.5 42.5T823 302v780h197V0H843l-13 160Q779 73 699 26T514-21Q337-21 238 92t-99 352zm351 810 185 266h230l2-6-269-260H490z"/><glyph unicode="û" d="M139 444v638h197V442q0-173 51-238t159-65q105 0 173.5 42.5T823 302v780h197V0H843l-13 160Q779 73 699 26T514-21Q337-21 238 92t-99 352zm135 814v26l246 237h120l248-238v-25H727l-147 148-146-148H274z"/><glyph unicode="ü" d="M139 444v638h197V442q0-173 51-238t159-65q105 0 173.5 42.5T823 302v780h197V0H843l-13 160Q779 73 699 26T514-21Q337-21 238 92t-99 352zm97 818v200h219v-200H236zm470 0v200h219v-200H706z"/><glyph unicode="ý" horiz-adv-x="1030" d="M26 1082h220l228-681 35-136h6l266 817h219L545-166q-41-109-117.5-190T221-437q-24 0-61 5.5T103-421l20 155q-6 1 35.5-2t52.5-3q63 0 103 56t67 124l47 113zm398 172 185 266h230l2-6-269-260H424z"/><glyph unicode="þ" horiz-adv-x="1186" d="M153-416v1976h197V962q53 68 128 104t173 36q201 0 312.5-159.5T1075 521v-21q0-234-112-377.5T654-21q-100 0-175.5 33.5T350 113v-529H153zm197 691q37-67 97-104.5T594 133q140 0 212 102.5T878 500v21q0 184-72.5 302.5T592 942q-85 0-145-38.5T350 798V275z"/><glyph unicode="ÿ" horiz-adv-x="1030" d="M26 1082h220l228-681 35-136h6l266 817h219L545-166q-41-109-117.5-190T221-437q-24 0-61 5.5T103-421l20 155q-6 1 35.5-2t52.5-3q63 0 103 56t67 124l47 113zm144 180v200h219v-200H170zm470 0v200h219v-200H640z"/><glyph unicode="Ā" horiz-adv-x="1295" d="m43 0 525 1456h169L1251 0h-201L922 375H374L244 0H43zm388 540h435l-212 625h-6zM293 1640v146h721v-146H293z"/><glyph unicode="ā" horiz-adv-x="1126" d="M106 304q0 155 125.5 242.5T572 634h214v107q0 95-58 150.5T564 947q-96 0-155-48t-59-115l-187-2-2 6v13q1 110 111 203 118 98 303 98 184 0 296-93.5T983 739V218q0-58 6-112t22-106H808q-10 49-15.5 86.5T786 162Q731 84 642.5 31.5T452-21q-169 0-257.5 86.5T106 304zm197-4q0-72 45-114t133-42q107 0 193 55t112 126v176H565q-119 0-190.5-60T303 300zM200 1318v146h721v-146H200z"/><glyph unicode="Ă" horiz-adv-x="1295" d="m43 0 525 1456h169L1251 0h-201L922 375H374L244 0H43zm388 540h435l-212 625h-6zm-77 1324 2 6h151q0-66 34-107t108-41q72 0 107 41.5t35 106.5h151l2-6q4-116-77-189t-218-73q-138 0-219 73t-76 189z"/><glyph unicode="ă" horiz-adv-x="1126" d="M106 304q0 155 125.5 242.5T572 634h214v107q0 95-58 150.5T564 947q-96 0-155-48t-59-115l-187-2-2 6v13q1 110 111 203 118 98 303 98 184 0 296-93.5T983 739V218q0-58 6-112t22-106H808q-10 49-15.5 86.5T786 162Q731 84 642.5 31.5T452-21q-169 0-257.5 86.5T106 304zm197-4q0-72 45-114t133-42q107 0 193 55t112 126v176H565q-119 0-190.5-60T303 300zm-42 1242 2 6h151q0-66 34-107t108-41q72 0 107 41.5t35 106.5h151l2-6q4-116-77-189t-218-73q-138 0-219 73t-76 189z"/><glyph unicode="Ą" horiz-adv-x="1295" d="m43 0 525 1456h169L1251 0h-201L922 375H374L244 0H43zm388 540h435l-212 625h-6zm476-763q0 80 60.5 152T1155 57l72-57q-70-52-109.5-99.5T1078-201q0-42 22.5-66t73.5-24q27 0 50 7.5t49 18.5l33-123q-36-19-79.5-31.5T1123-432q-95 0-155.5 55T907-223z"/><glyph unicode="ą" horiz-adv-x="1126" d="M106 304q0 155 125.5 242.5T572 634h214v107q0 95-58 150.5T564 947q-96 0-155-48t-59-115l-187-2-2 6v13q1 110 111 203 118 98 303 98 184 0 296-93.5T983 739V218q0-58 6-112t22-106H808q-10 49-15.5 86.5T786 162Q731 84 642.5 31.5T452-21q-169 0-257.5 86.5T106 304zm197-4q0-72 45-114t133-42q107 0 193 55t112 126v176H565q-119 0-190.5-60T303 300zm364-523q0 80 60.5 152T915 57l72-57q-70-52-109.5-99.5T838-201q0-42 22.5-66t73.5-24q27 0 50 7.5t49 18.5l33-123q-36-19-79.5-31.5T883-432q-95 0-155.5 55T667-223z"/><glyph unicode="Ć" horiz-adv-x="1297" d="M118 598v259q0 269 155.5 444.5T676 1477q247 1 393-131 142-128 142-337v-12l-2-6h-189q0 153-90 242t-254 89q-165 0-263-133t-98-330V598q0-199 98-332t263-133q164 0 254 88.5t90 244.5h189l2-6v-11q0-198-144-332Q919-21 676-21q-247 0-402.5 175T118 598zm470 1020 185 266h230l2-6-269-260H588z"/><glyph unicode="ć" horiz-adv-x="1072" d="M97 520v42q0 229 124.5 384.5T573 1102q181 0 297-112 112-108 111-264v-11l-2-6H800q0 99-64.5 168.5T573 947q-145 0-211.5-112.5T295 562v-42q0-163 65.5-275T573 133q91 0 159 60.5T800 342h178l3-6v-9q0-135-120-239Q737-20 573-21q-228 0-352 155T97 520zm360 755 185 266h230l2-6-269-260H457z"/><glyph unicode="Ĉ" horiz-adv-x="1297" d="M118 598v259q0 269 155.5 444.5T676 1477q247 1 393-131 142-128 142-337v-12l-2-6h-189q0 153-90 242t-254 89q-165 0-263-133t-98-330V598q0-199 98-332t263-133q164 0 254 88.5t90 244.5h189l2-6v-11q0-198-144-332Q919-21 676-21q-247 0-402.5 175T118 598zm254 1024v26l246 237h120l248-238v-25H825l-147 148-146-148H372z"/><glyph unicode="ĉ" horiz-adv-x="1072" d="M97 520v42q0 229 124.5 384.5T573 1102q181 0 297-112 112-108 111-264v-11l-2-6H800q0 99-64.5 168.5T573 947q-145 0-211.5-112.5T295 562v-42q0-163 65.5-275T573 133q91 0 159 60.5T800 342h178l3-6v-9q0-135-120-239Q737-20 573-21q-228 0-352 155T97 520zm144 759v26l246 237h120l248-238v-25H694l-147 148-146-148H241z"/><glyph unicode="Ċ" horiz-adv-x="1297" d="M118 598v259q0 269 155.5 444.5T676 1477q247 1 393-131 142-128 142-337v-12l-2-6h-189q0 153-90 242t-254 89q-165 0-263-133t-98-330V598q0-199 98-332t263-133q164 0 254 88.5t90 244.5h189l2-6v-11q0-198-144-332Q919-21 676-21q-247 0-402.5 175T118 598zm451 1027v201h218v-201H569z"/><glyph unicode="ċ" horiz-adv-x="1072" d="M97 520v42q0 229 124.5 384.5T573 1102q181 0 297-112 112-108 111-264v-11l-2-6H800q0 99-64.5 168.5T573 947q-145 0-211.5-112.5T295 562v-42q0-163 65.5-275T573 133q91 0 159 60.5T800 342h178l3-6v-9q0-135-120-239Q737-20 573-21q-228 0-352 155T97 520zm341 762v201h218v-201H438z"/><glyph unicode="Č" horiz-adv-x="1297" d="M118 598v259q0 269 155.5 444.5T676 1477q247 1 393-131 142-128 142-337v-12l-2-6h-189q0 153-90 242t-254 89q-165 0-263-133t-98-330V598q0-199 98-332t263-133q164 0 254 88.5t90 244.5h189l2-6v-11q0-198-144-332Q919-21 676-21q-247 0-402.5 175T118 598zm246 1268v20h166l147-148 147 148h170v-18l-257-245H618z"/><glyph unicode="č" horiz-adv-x="1072" d="M97 520v42q0 229 124.5 384.5T573 1102q181 0 297-112 112-108 111-264v-11l-2-6H800q0 99-64.5 168.5T573 947q-145 0-211.5-112.5T295 562v-42q0-163 65.5-275T573 133q91 0 159 60.5T800 342h178l3-6v-9q0-135-120-239Q737-20 573-21q-228 0-352 155T97 520zm136 1003v20h166l147-148 147 148h170v-18l-257-245H487z"/><glyph unicode="Ď" horiz-adv-x="1387" d="M170 0v1456h458q285 0 458.5-175.5T1260 827V628q0-279-173.5-453.5T628 0H170zm197 154h261q202 0 318.5 133T1063 628v201q0 206-116.5 339T628 1301H367V154zm-70 1691v20h166l147-148 147 148h170v-18l-257-245H551z"/><glyph unicode="ď" d="M98 500v21q0 261 111.5 421T522 1102q95 0 168.5-35T816 965v595h197V0H862l-30 137Q779 59 701 19T520-21q-198 0-310 143.5T98 500zm197 0q0-164 67-262.5T570 139q88 0 148 40t98 112v505q-38 67-98.5 106.5T572 942q-142 0-209.5-117T295 521v-21zm795 683 61 246v131h158v-140l-122-237h-97z"/><glyph unicode="Đ" horiz-adv-x="1387" d="M2 663v155h168v638h458q285 0 458.5-175.5T1260 827V628q0-279-173.5-453.5T628 0H170v663H2zm365-509h261q202 0 318.5 133T1063 628v201q0 206-116.5 339T628 1301H367V818h276V663H367V154z"/><glyph unicode="đ" d="M98 500v21q0 261 111.5 421T522 1102q95 0 168.5-35T816 965v266H569v155h247v174h197v-174h197v-155h-197V0H862l-30 137Q779 59 701 19T520-21q-198 0-310 143.5T98 500zm197 0q0-164 67-262.5T570 139q88 0 148 40t98 112v505q-38 67-98.5 106.5T572 942q-142 0-209.5-117T295 521v-21z"/><glyph unicode="Ē" horiz-adv-x="1130" d="M170 0v1456h886v-155H367V830h598V675H367V154h700V0H170zm94 1640v146h721v-146H264z"/><glyph unicode="ē" horiz-adv-x="1072" d="M97 520v44q0 233 134.5 385.5T560 1102q217 0 325.5-135T994 608V504H302l-3-5q0-163 72-264.5T591 133q100 0 175.5 28.5T896 240l77-128q-58-56-153-94.5T591-21q-233 0-363.5 149T97 520zm210 144 2-5h488v16q0 118-58 195t-179 77q-103 0-170.5-79.5T307 664zm-123 655v146h721v-146H184z"/><glyph unicode="Ĕ" horiz-adv-x="1130" d="M170 0v1456h886v-155H367V830h598V675H367V154h700V0H170zm155 1864 2 6h151q0-66 34-107t108-41q72 0 107 41.5t35 106.5h151l2-6q4-116-77-189t-218-73q-138 0-219 73t-76 189z"/><glyph unicode="ĕ" horiz-adv-x="1072" d="M97 520v44q0 233 134.5 385.5T560 1102q217 0 325.5-135T994 608V504H302l-3-5q0-163 72-264.5T591 133q100 0 175.5 28.5T896 240l77-128q-58-56-153-94.5T591-21q-233 0-363.5 149T97 520zm210 144 2-5h488v16q0 118-58 195t-179 77q-103 0-170.5-79.5T307 664zm-62 879 2 6h151q0-66 34-107t108-41q72 0 107 41.5t35 106.5h151l2-6q4-116-77-189t-218-73q-138 0-219 73t-76 189z"/><glyph unicode="Ė" horiz-adv-x="1130" d="M170 0v1456h886v-155H367V830h598V675H367V154h700V0H170zm340 1604v201h218v-201H510z"/><glyph unicode="ė" horiz-adv-x="1072" d="M97 520v44q0 233 134.5 385.5T560 1102q217 0 325.5-135T994 608V504H302l-3-5q0-163 72-264.5T591 133q100 0 175.5 28.5T896 240l77-128q-58-56-153-94.5T591-21q-233 0-363.5 149T97 520zm210 144 2-5h488v16q0 118-58 195t-179 77q-103 0-170.5-79.5T307 664zm123 619v201h218v-201H430z"/><glyph unicode="Ę" horiz-adv-x="1130" d="M170 0v1456h886v-155H367V830h598V675H367V154h700V0H170zm195-223q0 80 60.5 152T613 57l72-57q-70-52-109.5-99.5T536-201q0-42 22.5-66t73.5-24q27 0 50 7.5t49 18.5l33-123q-36-19-79.5-31.5T581-432q-95 0-155.5 55T365-223z"/><glyph unicode="ę" horiz-adv-x="1072" d="M97 520v44q0 233 134.5 385.5T560 1102q217 0 325.5-135T994 608V504H302l-3-5q0-163 72-264.5T591 133q100 0 175.5 28.5T896 240l77-128q-58-56-153-94.5T591-21q-233 0-363.5 149T97 520zm210 144 2-5h488v16q0 118-58 195t-179 77q-103 0-170.5-79.5T307 664zm257-827q0 80 60.5 152T812 117l72-57Q814 8 774.5-39.5T735-141q0-42 22.5-66t73.5-24q27 0 50 7.5t49 18.5l33-123q-36-19-79.5-31.5T780-372q-95 0-155.5 55T564-163z"/><glyph unicode="Ě" horiz-adv-x="1130" d="M170 0v1456h886v-155H367V830h598V675H367V154h700V0H170zm135 1845v20h166l147-148 147 148h170v-18l-257-245H559z"/><glyph unicode="ě" horiz-adv-x="1072" d="M97 520v44q0 233 134.5 385.5T560 1102q217 0 325.5-135T994 608V504H302l-3-5q0-163 72-264.5T591 133q100 0 175.5 28.5T896 240l77-128q-58-56-153-94.5T591-21q-233 0-363.5 149T97 520zm210 144 2-5h488v16q0 118-58 195t-179 77q-103 0-170.5-79.5T307 664zm-82 860v20h166l147-148 147 148h170v-18l-257-245H479z"/><glyph unicode="Ĝ" horiz-adv-x="1387" d="M121 578v300q0 265 159 432t410 167q243 0 384-129 137-126 137-319v-11l-2-6h-189q0 133-86 221.5T690 1322q-167 0-269-125T319 880V578q0-194 108-319.5T703 133q129 0 204.5 33.5T1020 246v328H690v154h527V196q-52-81-180.5-149T703-21q-252 0-417 167T121 578zm242 1044v26l246 237h120l248-238v-25H816l-147 148-146-148H363z"/><glyph unicode="ĝ" d="M108 500v21q0 261 111.5 421T531 1102q103 0 181-41.5T843 941l24 141h157V-6q0-208-121-319.5T554-437q-78 0-168.5 21.5T226-357l30 153q57-30 137.5-48.5T552-271q144 0 209.5 65.5T827-6v123Q774 49 700 14T529-21q-198 0-309.5 143.5T108 500zm197 0q0-163 67-262t207-99q89 0 149 40.5T827 294v498q-38 69-99 109.5T581 942q-141 0-208.5-117T305 521v-21zm-44 779v26l246 237h120l248-238v-25H714l-147 148-146-148H261z"/><glyph unicode="Ğ" horiz-adv-x="1387" d="M121 578v300q0 265 159 432t410 167q243 0 384-129 137-126 137-319v-11l-2-6h-189q0 133-86 221.5T690 1322q-167 0-269-125T319 880V578q0-194 108-319.5T703 133q129 0 204.5 33.5T1020 246v328H690v154h527V196q-52-81-180.5-149T703-21q-252 0-417 167T121 578zm254 1307 2 6h151q0-66 34-107t108-41q72 0 107 41.5t35 106.5h151l2-6q4-116-77-189t-218-73q-138 0-219 73t-76 189z"/><glyph unicode="ğ" d="M108 500v21q0 261 111.5 421T531 1102q103 0 181-41.5T843 941l24 141h157V-6q0-208-121-319.5T554-437q-78 0-168.5 21.5T226-357l30 153q57-30 137.5-48.5T552-271q144 0 209.5 65.5T827-6v123Q774 49 700 14T529-21q-198 0-309.5 143.5T108 500zm197 0q0-163 67-262t207-99q89 0 149 40.5T827 294v498q-38 69-99 109.5T581 942q-141 0-208.5-117T305 521v-21zm-32 1042 2 6h151q0-66 34-107t108-41q72 0 107 41.5t35 106.5h151l2-6q4-116-77-189t-218-73q-138 0-219 73t-76 189z"/><glyph unicode="Ġ" horiz-adv-x="1387" d="M121 578v300q0 265 159 432t410 167q243 0 384-129 137-126 137-319v-11l-2-6h-189q0 133-86 221.5T690 1322q-167 0-269-125T319 880V578q0-194 108-319.5T703 133q129 0 204.5 33.5T1020 246v328H690v154h527V196q-52-81-180.5-149T703-21q-252 0-417 167T121 578zm439 1047v201h218v-201H560z"/><glyph unicode="ġ" d="M108 500v21q0 261 111.5 421T531 1102q103 0 181-41.5T843 941l24 141h157V-6q0-208-121-319.5T554-437q-78 0-168.5 21.5T226-357l30 153q57-30 137.5-48.5T552-271q144 0 209.5 65.5T827-6v123Q774 49 700 14T529-21q-198 0-309.5 143.5T108 500zm197 0q0-163 67-262t207-99q89 0 149 40.5T827 294v498q-38 69-99 109.5T581 942q-141 0-208.5-117T305 521v-21zm153 782v201h218v-201H458z"/><glyph unicode="Ģ" horiz-adv-x="1387" d="M121 578v300q0 265 159 432t410 167q243 0 384-129 137-126 137-319v-11l-2-6h-189q0 133-86 221.5T690 1322q-167 0-269-125T319 880V578q0-194 108-319.5T703 133q129 0 204.5 33.5T1020 246v328H690v154h527V196q-52-81-180.5-149T703-21q-252 0-417 167T121 578zM522-495l61 246v131h158v-140L619-495h-97z"/><glyph unicode="ģ" d="M108 500v21q0 261 111.5 421T531 1102q103 0 181-41.5T843 941l24 141h157V-6q0-208-121-319.5T554-437q-78 0-168.5 21.5T226-357l30 153q57-30 137.5-48.5T552-271q144 0 209.5 65.5T827-6v123Q774 49 700 14T529-21q-198 0-309.5 143.5T108 500zm197 0q0-163 67-262t207-99q89 0 149 40.5T827 294v498q-38 69-99 109.5T581 942q-141 0-208.5-117T305 521v-21zm157 753v148l121 247h97l-21-257v-138H462z"/><glyph unicode="Ĥ" horiz-adv-x="1441" d="M170 0v1456h197V798h707v658h197V0h-197v643H367V0H170zm236 1601v26l246 237h120l248-238v-25H859l-147 148-146-148H406z"/><glyph unicode="ĥ" d="M143 0v1560h197V937q56 78 137.5 121.5T658 1102q173 0 269.5-104t96.5-320V0H827v680q0 134-57.5 198T598 942q-88 0-153-34.5T340 811V0H143zm60 1600v26l246 237h120l248-238v-25H656l-147 148-146-148H203z"/><glyph unicode="Ħ" horiz-adv-x="1439" d="M31 1024v145h147v287h197v-287h707v287h197v-287h144v-145h-144V0h-197v643H375V0H178v1024H31zm344-226h707v226H375V798z"/><glyph unicode="ħ" d="M-28 1231v155h171v174h197v-174h273v-155H340V937q56 78 137.5 121.5T658 1102q173 0 269.5-104t96.5-320V0H827v680q0 134-57.5 198T598 942q-88 0-153-34.5T340 811V0H143v1231H-28z"/><glyph unicode="Ĩ" horiz-adv-x="579" d="M190 0v1456h198V0H190zM-57 1628q0 93 59 161.5t150 68.5q56 0 140-47t136-47q41 0 71 32.5t30 79.5l108-32q0-94-59.5-159T428 1620q-71 0-148 46.5T152 1713q-43 0-72-32.5T51 1602z"/><glyph unicode="ĩ" horiz-adv-x="515" d="M153 0v1082h197V0H153zM-94 1285q0 93 59 161.5t150 68.5q56 0 140-47t136-47q41 0 71 32.5t30 79.5l108-32q0-94-59.5-159T391 1277q-71 0-148 46.5T115 1370q-43 0-72-32.5T14 1259z"/><glyph unicode="Ī" horiz-adv-x="579" d="M190 0v1456h198V0H190zM-65 1640v146h721v-146H-65z"/><glyph unicode="ī" horiz-adv-x="515" d="M153 0v1082h197V0H153zm-255 1298v146h721v-146h-721z"/><glyph unicode="Ĭ" horiz-adv-x="579" d="M190 0v1456h198V0H190zM-4 1864l2 6h151q0-66 34-107t108-41q72 0 107 41.5t35 106.5h151l2-6q4-116-77-189t-218-73q-138 0-219 73t-76 189z"/><glyph unicode="ĭ" horiz-adv-x="515" d="M153 0v1082h197V0H153zM-41 1521l2 6h151q0-66 34-107t108-41q72 0 107 41.5t35 106.5h151l2-6q4-116-77-189t-218-73q-138 0-219 73t-76 189z"/><glyph unicode="Į" horiz-adv-x="579" d="M190 0v1456h198V0H190zM45-223q0 80 60.5 152T293 57l72-57q-70-52-109.5-99.5T216-201q0-42 22.5-66t73.5-24q27 0 50 7.5t49 18.5l33-123q-36-19-79.5-31.5T261-432q-95 0-155.5 55T45-223z"/><glyph unicode="į" horiz-adv-x="516" d="M159 0v1082h197V0H159zm0 1359v201h197v-201H159zM13-223q0 80 60.5 152T261 57l72-57q-70-52-109.5-99.5T184-201q0-42 22.5-66t73.5-24q27 0 50 7.5t49 18.5l33-123q-36-19-79.5-31.5T229-432q-95 0-155.5 55T13-223z"/><glyph unicode="İ" horiz-adv-x="579" d="M190 0v1456h198V0H190zm-10 1604v201h218v-201H180z"/><glyph unicode="ı" horiz-adv-x="515" d="M153 0v1082h197V0H153z"/><glyph unicode="Ĳ" horiz-adv-x="1702" d="M190 0v1456h198V0H190zm468 395 2 6h189q0-136 63-202t179-66q109 0 178 79t69 210v1034h197V422q0-203-123.5-323T1091-21Q890-21 771 86 658 188 658 379v16z"/><glyph unicode="ĳ" horiz-adv-x="1046" d="M159 0v1082h197V0H159zm0 1359v201h197v-201H159zM450-419l14 155q14-5 40-8.5t43-3.5q65 0 103.5 44T689-89v1171h197V-89q0-167-86-257.5T561-437q-31 0-56.5 4.5T450-419zm233 1782v197h197v-197H683z"/><glyph unicode="Ĵ" horiz-adv-x="1123" d="m79 395 2 6h189q0-136 63-202t179-66q109 0 178 79t69 210v1034h197V422q0-203-123.5-323T512-21Q311-21 192 86 79 188 79 379v16zm464 1194v26l246 237h120l248-238v-25H996l-147 148-146-148H543z"/><glyph unicode="ĵ" horiz-adv-x="523" d="m-68-419 14 150q14-5 46.5-9t50.5-4q59 0 93.5 51.5T171-89v1171h197V-89q0-167-86-257.5T43-437q-31 0-56.5 4.5T-68-419zm33 1658v26l246 237h120l248-238v-25H418l-147 148-146-148H-35z"/><glyph unicode="Ķ" horiz-adv-x="1302" d="M170 0v1456h197V812h108l540 644h222l2-5-590-689L1281 5l-2-5h-239L495 658H367V0H170zm307-478 61 246v131h158v-140L574-478h-97z"/><glyph unicode="ķ" horiz-adv-x="1050" d="M144 0v1560h197V656h99l325 426h236L608 583 1035 0H802L442 499H341V0H144zm244-476 61 246v131h158v-140L485-476h-97z"/><glyph unicode="ĸ" horiz-adv-x="1144" d="M153 0v1082h197V625h84l388 457h231l2-5-450-514L1088 5l-2-5H845L451 459H350V0H153z"/><glyph unicode="Ĺ" horiz-adv-x="1126" d="M170 0v1456h197V154h710V0H170zm6 1534 185 266h230l2-6-269-260H176z"/><glyph unicode="ĺ" horiz-adv-x="516" d="M159 0v1560h197V0H159zm9 1609 185 266h230l2-6-269-260H168z"/><glyph unicode="Ļ" horiz-adv-x="1126" d="M170 0v1456h197V154h710V0H170zm301-476 61 246v131h158v-140L568-476h-97z"/><glyph unicode="ļ" horiz-adv-x="516" d="M159 0v1560h197V0H159zm-49-476 61 246v131h158v-140L207-476h-97z"/><glyph unicode="Ľ" horiz-adv-x="1126" d="M170 0v1456h197V154h710V0H170zm403 1080 61 246v131h158v-140l-122-237h-97z"/><glyph unicode="ľ" horiz-adv-x="516" d="M159 0v1560h197V0H159zm307 1183 61 246v131h158v-140l-122-237h-97z"/><glyph unicode="Ŀ" horiz-adv-x="1126" d="M170 0v1456h197V154h710V0H170zm434 687v201h218V687H604z"/><glyph unicode="ŀ" horiz-adv-x="516" d="M159 0v1560h197V0H159zm240 670v201h218V670H399z"/><glyph unicode="Ł" horiz-adv-x="1077" d="M40 576v166l123 39v675h197V843l269 86V763l-269-86V154h710V0H163v615z"/><glyph unicode="ł" horiz-adv-x="558" d="M37 578v165l142 54v763h197V872l150 58V765l-150-58V0H179v632z"/><glyph unicode="Ń" horiz-adv-x="1442" d="M170 0v1456h197l701-1111 6 2v1109h197V0h-197L373 1112l-6-2V0H170zm459 1597 185 266h230l2-6-269-260H629z"/><glyph unicode="ń" d="M143 0v1082h176l14-161q54 86 135.5 133.5T654 1102q175 0 271-102.5t96-316.5V0H824v679q0 143-56.5 203T595 942q-91 0-154.5-36.5T340 803V0H143zm345 1275 185 266h230l2-6-269-260H488z"/><glyph unicode="Ņ" horiz-adv-x="1442" d="M170 0v1456h197l701-1111 6 2v1109h197V0h-197L373 1112l-6-2V0H170zm401-476 61 246v131h158v-140L668-476h-97z"/><glyph unicode="ņ" d="M143 0v1082h176l14-161q54 86 135.5 133.5T654 1102q175 0 271-102.5t96-316.5V0H824v679q0 143-56.5 203T595 942q-91 0-154.5-36.5T340 803V0H143zm287-476 61 246v131h158v-140L527-476h-97z"/><glyph unicode="Ň" horiz-adv-x="1442" d="M170 0v1456h197l701-1111 6 2v1109h197V0h-197L373 1112l-6-2V0H170zm235 1845v20h166l147-148 147 148h170v-18l-257-245H659z"/><glyph unicode="ň" d="M143 0v1082h176l14-161q54 86 135.5 133.5T654 1102q175 0 271-102.5t96-316.5V0H824v679q0 143-56.5 203T595 942q-91 0-154.5-36.5T340 803V0H143zm121 1523v20h166l147-148 147 148h170v-18l-257-245H518z"/><glyph unicode="ŉ" d="M143 0v1082h176l14-161q54 86 135.5 133.5T654 1102q175 0 271-102.5t96-316.5V0H824v679q0 143-56.5 203T595 942q-91 0-154.5-36.5T340 803V0H143zM-33 1183l61 246v131h158v-140L64 1183h-97z"/><glyph unicode="Ŋ" horiz-adv-x="1416" d="M161 0v1456h197l701-1112 6 2v1110h197V-89q0-167-86-257.5T936-437q-31 0-57 4.5T824-419l14 150q13-5 47-9t51-4q60 0 94.5 51.5T1065-89V0L364 1112l-6-2V0H161z"/><glyph unicode="ŋ" d="M143 0v1082h176l13-150q54 81 134 125.5t181 44.5q174 0 270-102.5t96-316.5V-89q0-167-86-257.5T687-437q-31 0-57.5 4.5T575-419l14 160q13-5 46.5-8.5T687-271q61 0 95 47t34 135v768q0 143-57 203t-173 60q-85 0-146.5-33T340 817V0H143z"/><glyph unicode="Ō" horiz-adv-x="1396" d="M113 598v259q0 266 159.5 443T687 1477q264 0 429.5-176.5T1282 857V598q0-267-165.5-443T687-21q-255 0-414.5 176T113 598zm197 0q0-202 102.5-330T687 140q183 0 290.5 127.5T1085 598v261q0 200-108 328t-290 128q-172 0-274.5-128T310 859V598zm33 1063v146h721v-146H343z"/><glyph unicode="ō" d="M97 529v22q0 240 130 395.5T580 1102q225 0 355.5-155T1066 551v-22q0-242-130-396T582-21 227.5 133.5 97 529zm197 0q0-172 72.5-284T582 133q141 0 214 112t73 284v22q0 170-73.5 283T580 947q-141 0-213.5-113T294 551v-22zm-67 789v146h721v-146H227z"/><glyph unicode="Ŏ" horiz-adv-x="1396" d="M113 598v259q0 266 159.5 443T687 1477q264 0 429.5-176.5T1282 857V598q0-267-165.5-443T687-21q-255 0-414.5 176T113 598zm197 0q0-202 102.5-330T687 140q183 0 290.5 127.5T1085 598v261q0 200-108 328t-290 128q-172 0-274.5-128T310 859V598zm94 1287 2 6h151q0-66 34-107t108-41q72 0 107 41.5t35 106.5h151l2-6q4-116-77-189t-218-73q-138 0-219 73t-76 189z"/><glyph unicode="ŏ" d="M97 529v22q0 240 130 395.5T580 1102q225 0 355.5-155T1066 551v-22q0-242-130-396T582-21 227.5 133.5 97 529zm197 0q0-172 72.5-284T582 133q141 0 214 112t73 284v22q0 170-73.5 283T580 947q-141 0-213.5-113T294 551v-22zm-6 1013 2 6h151q0-66 34-107t108-41q72 0 107 41.5t35 106.5h151l2-6q4-116-77-189t-218-73q-138 0-219 73t-76 189z"/><glyph unicode="Ő" horiz-adv-x="1396" d="M113 598v259q0 266 159.5 443T687 1477q264 0 429.5-176.5T1282 857V598q0-267-165.5-443T687-21q-255 0-414.5 176T113 598zm197 0q0-202 102.5-330T687 140q183 0 290.5 127.5T1085 598v261q0 200-108 328t-290 128q-172 0-274.5-128T310 859V598zm152 1024 184 266h211l2-5-240-261H462zm269 5 241 261h229l3-6-300-260H733z"/><glyph unicode="ő" d="M97 529v22q0 240 130 395.5T580 1102q225 0 355.5-155T1066 551v-22q0-242-130-396T582-21 227.5 133.5 97 529zm197 0q0-172 72.5-284T582 133q141 0 214 112t73 284v22q0 170-73.5 283T580 947q-141 0-213.5-113T294 551v-22zm52 750 184 266h211l2-5-240-261H346zm269 5 241 261h229l3-6-300-260H617z"/><glyph unicode="Œ" horiz-adv-x="1960" d="M104 576v304q0 265 154.5 431T662 1477q69 0 140.5-6t150.5-15h838v-155h-689V830h598V675h-598V154h700V0H953q-92-10-157-15.5T664-21q-249 0-404.5 166T104 576zm197 0q0-214 97-328t266-114q61 0 122 4.5T905 152v1151q-61 8-122 13.5t-121 5.5q-169 0-265-113.5T301 882V576z"/><glyph unicode="œ" horiz-adv-x="1854" d="M97 529v22q0 240 130 395.5T580 1102q128 0 228-54t164-150q64 96 160 150t208 54q217 0 325.5-135T1774 608V504h-692l-3-5q0-163 72-264.5T1371 133q100 0 175.5 28.5T1676 240l77-128q-58-56-153-94.5T1371-21q-135 0-237 51.5T969 177Q905 83 806.5 31T582-21q-224 0-354.5 154.5T97 529zm197 0q0-172 72.5-284T582 133q141 0 214 112t73 284v22q0 170-73.5 283T580 947q-141 0-213.5-113T294 551v-22zm793 135 2-5h488v16q0 118-58 195t-179 77q-103 0-170.5-79.5T1087 664z"/><glyph unicode="Ŕ" horiz-adv-x="1303" d="M170 0v1455h498q239 0 365-106t126-308q0-112-58.5-195T930 714q120-39 172.5-126.5T1155 371V234q0-68 15-122t52-88V0h-203q-39 34-50 100t-11 136v133q0 118-69 190t-185 72H367V0H170zm197 786h281q167 0 240.5 63.5T962 1043q0 123-71.5 190.5T668 1301H367V786zm153 811 185 266h230l2-6-269-260H520z"/><glyph unicode="ŕ" horiz-adv-x="717" d="M143 0v1082h176l19-158q46 84 113.5 131t155.5 47q22 0 42-3.5t33-7.5l-27-183-101 6q-78 0-131.5-37T340 773V0H143zm180 1275 185 266h230l2-6-269-260H323z"/><glyph unicode="Ŗ" horiz-adv-x="1303" d="M170 0v1455h498q239 0 365-106t126-308q0-112-58.5-195T930 714q120-39 172.5-126.5T1155 371V234q0-68 15-122t52-88V0h-203q-39 34-50 100t-11 136v133q0 118-69 190t-185 72H367V0H170zm197 786h281q167 0 240.5 63.5T962 1043q0 123-71.5 190.5T668 1301H367V786zm95-1262 61 246v131h158v-140L559-476h-97z"/><glyph unicode="ŗ" horiz-adv-x="717" d="M143 0v1082h176l19-158q46 84 113.5 131t155.5 47q22 0 42-3.5t33-7.5l-27-183-101 6q-78 0-131.5-37T340 773V0H143zm-36-476 61 246v131h158v-140L204-476h-97z"/><glyph unicode="Ř" horiz-adv-x="1303" d="M170 0v1455h498q239 0 365-106t126-308q0-112-58.5-195T930 714q120-39 172.5-126.5T1155 371V234q0-68 15-122t52-88V0h-203q-39 34-50 100t-11 136v133q0 118-69 190t-185 72H367V0H170zm197 786h281q167 0 240.5 63.5T962 1043q0 123-71.5 190.5T668 1301H367V786zm-71 1059v20h166l147-148 147 148h170v-18l-257-245H550z"/><glyph unicode="ř" horiz-adv-x="717" d="M143 0v1082h176l19-158q46 84 113.5 131t155.5 47q22 0 42-3.5t33-7.5l-27-183-101 6q-78 0-131.5-37T340 773V0H143zm-43 1523v20h166l147-148 147 148h170v-18l-257-245H354z"/><glyph unicode="Ś" horiz-adv-x="1252" d="m114 413 2 6h188q0-137 104-211.5T643 133q140 0 221.5 63T946 367q0 99-71 166T625 647q-222 55-346.5 162T154 1078q0 171 134 285t348 114q230-1 366-131 133-127 133-294v-10l-3-6H944q0 124-86.5 205T636 1322q-138 0-211.5-67T351 1081q0-95 80.5-158.5T693 811q220-57 335-168t115-274q0-176-138.5-283T643-21Q432-21 270 97 113 211 114 401v12zm421 1205 185 266h230l2-6-269-260H535z"/><glyph unicode="ś" horiz-adv-x="1071" d="m109 329 2 6h188q5-105 78-153.5T548 133q105 0 164.5 44.5T772 291q0 65-49.5 106T535 469q-191 41-293.5 115T139 782q0 132 112.5 226t291.5 94q184 0 298-100 109-96 109-222v-11l-2-6H760q0 70-61.5 127T543 947q-104 0-155.5-47T336 788q0-64 44.5-99T564 625q199-42 302-119t103-201q0-144-116.5-235T548-21Q341-21 222 84 109 184 109 316v13zm336 946 185 266h230l2-6-269-260H445z"/><glyph unicode="Ŝ" horiz-adv-x="1252" d="m114 413 2 6h188q0-137 104-211.5T643 133q140 0 221.5 63T946 367q0 99-71 166T625 647q-222 55-346.5 162T154 1078q0 171 134 285t348 114q230-1 366-131 133-127 133-294v-10l-3-6H944q0 124-86.5 205T636 1322q-138 0-211.5-67T351 1081q0-95 80.5-158.5T693 811q220-57 335-168t115-274q0-176-138.5-283T643-21Q432-21 270 97 113 211 114 401v12zm205 1209v26l246 237h120l248-238v-25H772l-147 148-146-148H319z"/><glyph unicode="ŝ" horiz-adv-x="1071" d="m109 329 2 6h188q5-105 78-153.5T548 133q105 0 164.5 44.5T772 291q0 65-49.5 106T535 469q-191 41-293.5 115T139 782q0 132 112.5 226t291.5 94q184 0 298-100 109-96 109-222v-11l-2-6H760q0 70-61.5 127T543 947q-104 0-155.5-47T336 788q0-64 44.5-99T564 625q199-42 302-119t103-201q0-144-116.5-235T548-21Q341-21 222 84 109 184 109 316v13zm120 950v26l246 237h120l248-238v-25H682l-147 148-146-148H229z"/><glyph unicode="Ş" horiz-adv-x="1252" d="m114 413 2 6h188q0-137 104-211.5T643 133q140 0 221.5 63T946 367q0 99-71 166T625 647q-222 55-346.5 162T154 1078q0 171 134 285t348 114q230-1 366-131 133-127 133-294v-10l-3-6H944q0 124-86.5 205T636 1322q-138 0-211.5-67T351 1081q0-95 80.5-158.5T693 811q220-57 335-168t115-274q0-176-138.5-283T643-21Q432-21 270 97 113 211 114 401v12zm414-748q72 0 116 24.5t44 73.5q0 48-36 67t-123 26L561-9h140l-12-52q65-11 108-52t43-121q0-96-79-153t-226-57z"/><glyph unicode="ş" horiz-adv-x="1071" d="m109 329 2 6h188q5-105 78-153.5T548 133q105 0 164.5 44.5T772 291q0 65-49.5 106T535 469q-191 41-293.5 115T139 782q0 132 112.5 226t291.5 94q184 0 298-100 109-96 109-222v-11l-2-6H760q0 70-61.5 127T543 947q-104 0-155.5-47T336 788q0-64 44.5-99T564 625q199-42 302-119t103-201q0-144-116.5-235T548-21Q341-21 222 84 109 184 109 316v13zm329-663q72 0 116 24.5t44 73.5q0 48-36 67t-123 26L471-8h140l-12-52q65-11 108-52t43-121q0-96-79-153t-226-57z"/><glyph unicode="Š" horiz-adv-x="1252" d="m114 413 2 6h188q0-137 104-211.5T643 133q140 0 221.5 63T946 367q0 99-71 166T625 647q-222 55-346.5 162T154 1078q0 171 134 285t348 114q230-1 366-131 133-127 133-294v-10l-3-6H944q0 124-86.5 205T636 1322q-138 0-211.5-67T351 1081q0-95 80.5-158.5T693 811q220-57 335-168t115-274q0-176-138.5-283T643-21Q432-21 270 97 113 211 114 401v12zm197 1453v20h166l147-148 147 148h170v-18l-257-245H565z"/><glyph unicode="š" horiz-adv-x="1071" d="m109 329 2 6h188q5-105 78-153.5T548 133q105 0 164.5 44.5T772 291q0 65-49.5 106T535 469q-191 41-293.5 115T139 782q0 132 112.5 226t291.5 94q184 0 298-100 109-96 109-222v-11l-2-6H760q0 70-61.5 127T543 947q-104 0-155.5-47T336 788q0-64 44.5-99T564 625q199-42 302-119t103-201q0-144-116.5-235T548-21Q341-21 222 84 109 184 109 316v13zm112 1194v20h166l147-148 147 148h170v-18l-257-245H475z"/><glyph unicode="Ţ" horiz-adv-x="1225" d="M37 1301v155h1151v-155H708V0H511v1301H37zM465-476l61 246v131h158v-140L562-476h-97z"/><glyph unicode="ţ" horiz-adv-x="690" d="M48 936v146h172v261h197v-261h205V936H417V279q0-76 31.5-107t83.5-31q17 0 38 4.5t35 9.5l27-135Q610 2 567-9.5T482-21q-120 0-191 72.5T220 279v657H48zM322-486l61 246v131h158v-140L419-486h-97z"/><glyph unicode="Ť" horiz-adv-x="1225" d="M37 1301v155h1151v-155H708V0H511v1301H37zm262 543v20h166l147-148 147 148h170v-18l-257-245H553z"/><glyph unicode="ť" horiz-adv-x="690" d="M48 936v146h172v261h197v-261h205V936H417V279q0-76 31.5-107t83.5-31q17 0 38 4.5t35 9.5l27-135Q610 2 567-9.5T482-21q-120 0-191 72.5T220 279v657H48zm510 274 61 246v131h158v-140l-122-237h-97z"/><glyph unicode="Ŧ" horiz-adv-x="1225" d="M37 1301v155h1151v-155H708V975h220V820H708V0H511v820H287v155h224v326H37z"/><glyph unicode="ŧ" horiz-adv-x="690" d="M6 600v155h214v181H48v146h172v261h197v-261h205V936H417V755h230V600H417V279q0-76 31.5-107t83.5-31q17 0 38 4.5t35 9.5l27-135Q610 2 567-9.5T482-21q-120 0-191 72.5T220 279v321H6z"/><glyph unicode="Ũ" horiz-adv-x="1386" d="M147 489v967h197V489q0-167 95.5-261.5T686 133q160 0 260.5 94.5T1047 489v967h197V489q0-240-156-375T686-21q-237 0-388 135.5T147 489zm203 1139q0 93 59 161.5t150 68.5q56 0 140-47t136-47q41 0 71 32.5t30 79.5l108-32q0-94-59.5-159T835 1620q-71 0-148 46.5T559 1713q-43 0-72-32.5t-29-78.5z"/><glyph unicode="ũ" d="M139 444v638h197V442q0-173 51-238t159-65q105 0 173.5 42.5T823 302v780h197V0H843l-13 160Q779 73 699 26T514-21Q337-21 238 92t-99 352zm94 841q0 93 59 161.5t150 68.5q56 0 140-47t136-47q41 0 71 32.5t30 79.5l108-32q0-94-59.5-159T718 1277q-71 0-148 46.5T442 1370q-43 0-72-32.5t-29-78.5z"/><glyph unicode="Ū" horiz-adv-x="1386" d="M147 489v967h197V489q0-167 95.5-261.5T686 133q160 0 260.5 94.5T1047 489v967h197V489q0-240-156-375T686-21q-237 0-388 135.5T147 489zm195 1151v146h721v-146H342z"/><glyph unicode="ū" d="M139 444v638h197V442q0-173 51-238t159-65q105 0 173.5 42.5T823 302v780h197V0H843l-13 160Q779 73 699 26T514-21Q337-21 238 92t-99 352zm86 854v146h721v-146H225z"/><glyph unicode="Ŭ" horiz-adv-x="1386" d="M147 489v967h197V489q0-167 95.5-261.5T686 133q160 0 260.5 94.5T1047 489v967h197V489q0-240-156-375T686-21q-237 0-388 135.5T147 489zm256 1375 2 6h151q0-66 34-107t108-41q72 0 107 41.5t35 106.5h151l2-6q4-116-77-189t-218-73q-138 0-219 73t-76 189z"/><glyph unicode="ŭ" d="M139 444v638h197V442q0-173 51-238t159-65q105 0 173.5 42.5T823 302v780h197V0H843l-13 160Q779 73 699 26T514-21Q337-21 238 92t-99 352zm147 1077 2 6h151q0-66 34-107t108-41q72 0 107 41.5t35 106.5h151l2-6q4-116-77-189t-218-73q-138 0-219 73t-76 189z"/><glyph unicode="Ů" horiz-adv-x="1386" d="M147 489v967h197V489q0-167 95.5-261.5T686 133q160 0 260.5 94.5T1047 489v967h197V489q0-240-156-375T686-21q-237 0-388 135.5T147 489zm373 1245q0 72 51.5 120.5T696 1903q72 0 122.5-48.5T869 1734q0-73-50.5-118.5T696 1570q-74 0-125 46t-51 118zm100 0q0-31 22.5-52.5T696 1660q30 0 51.5 21t21.5 53-21.5 54.5T696 1811q-32 0-54-22.5t-22-54.5z"/><glyph unicode="ů" d="M139 444v638h197V442q0-173 51-238t159-65q105 0 173.5 42.5T823 302v780h197V0H843l-13 160Q779 73 699 26T514-21Q337-21 238 92t-99 352zm264 947q0 72 51.5 120.5T579 1560q72 0 122.5-48.5T752 1391q0-73-50.5-118.5T579 1227q-74 0-125 46t-51 118zm100 0q0-31 22.5-52.5T579 1317q30 0 51.5 21t21.5 53-21.5 54.5T579 1468q-32 0-54-22.5t-22-54.5z"/><glyph unicode="Ű" horiz-adv-x="1386" d="M147 489v967h197V489q0-167 95.5-261.5T686 133q160 0 260.5 94.5T1047 489v967h197V489q0-240-156-375T686-21q-237 0-388 135.5T147 489zm314 1112 184 266h211l2-5-240-261H461zm269 5 241 261h229l3-6-300-260H732z"/><glyph unicode="ű" d="M139 444v638h197V442q0-173 51-238t159-65q105 0 173.5 42.5T823 302v780h197V0H843l-13 160Q779 73 699 26T514-21Q337-21 238 92t-99 352zm205 814 184 266h211l2-5-240-261H344zm269 5 241 261h229l3-6-300-260H615z"/><glyph unicode="Ų" horiz-adv-x="1386" d="M147 489v967h197V489q0-167 95.5-261.5T686 133q160 0 260.5 94.5T1047 489v967h197V489q0-240-156-375T686-21q-237 0-388 135.5T147 489zm346-712q0 80 60.5 152T741 57l72-57q-70-52-109.5-99.5T664-201q0-42 22.5-66t73.5-24q27 0 50 7.5t49 18.5l33-123q-36-19-79.5-31.5T709-432q-95 0-155.5 55T493-223z"/><glyph unicode="ų" d="M139 444v638h197V442q0-173 51-238t159-65q105 0 173.5 42.5T823 302v780h197V0H843l-13 160Q779 73 699 26T514-21Q337-21 238 92t-99 352zm536-667q0 80 60.5 152T923 57l72-57q-70-52-109.5-99.5T846-201q0-42 22.5-66t73.5-24q27 0 50 7.5t49 18.5l33-123q-36-19-79.5-31.5T891-432q-95 0-155.5 55T675-223z"/><glyph unicode="Ŵ" horiz-adv-x="1763" d="M37 1456h213l212-951 25-191 6-1 34 192 258 951h193l260-951 34-195h6l27 195 208 951h214L1375 0h-176L908 1010l-22 131h-6l-21-131L564 0H388zm538 145v26l246 237h120l248-238v-25h-161l-147 148-146-148H575z"/><glyph unicode="ŵ" horiz-adv-x="1550" d="M45 1082h205l170-688 25-139h6l26 139 216 688h158l217-688 28-155h6l32 155 160 688h206L1186 0h-159L813 659l-41 172h-6l-38-172L518 0H359zm422 176v26l246 237h120l248-238v-25H920l-147 148-146-148H467z"/><glyph unicode="Ŷ" horiz-adv-x="1295" d="M40 1456h225l380-740 380 740h225L739 512V0H543v527zm300 144v26l246 237h120l248-238v-25H793l-147 148-146-148H340z"/><glyph unicode="ŷ" horiz-adv-x="1030" d="M26 1082h220l228-681 35-136h6l266 817h219L545-166q-41-109-117.5-190T221-437q-24 0-61 5.5T103-421l20 155q-6 1 35.5-2t52.5-3q63 0 103 56t67 124l47 113zm182 176v26l246 237h120l248-238v-25H661l-147 148-146-148H208z"/><glyph unicode="Ÿ" horiz-adv-x="1295" d="M40 1456h225l380-740 380 740h225L739 512V0H543v527zm262 148v200h219v-200H302zm470 0v200h219v-200H772z"/><glyph unicode="Ź" horiz-adv-x="1225" d="M97 0v146l778 1155H108v155h992v-141L319 154h814V0H97zm422 1597 185 266h230l2-6-269-260H519z"/><glyph unicode="ź" horiz-adv-x="1030" d="M94 0v138l585 788H101v156h819V948L329 154h625V0H94zm340 1254 185 266h230l2-6-269-260H434z"/><glyph unicode="Ż" horiz-adv-x="1225" d="M97 0v146l778 1155H108v155h992v-141L319 154h814V0H97zm403 1604v201h218v-201H500z"/><glyph unicode="ż" horiz-adv-x="1030" d="M94 0v138l585 788H101v156h819V948L329 154h625V0H94zm321 1261v201h218v-201H415z"/><glyph unicode="Ž" horiz-adv-x="1225" d="M97 0v146l778 1155H108v155h992v-141L319 154h814V0H97zm198 1845v20h166l147-148 147 148h170v-18l-257-245H549z"/><glyph unicode="ž" horiz-adv-x="1030" d="M94 0v138l585 788H101v156h819V948L329 154h625V0H94zm116 1502v20h166l147-148 147 148h170v-18l-257-245H464z"/><glyph unicode="ſ" horiz-adv-x="516" d="M159 0v1219q0 173 91 267.5t253 94.5q33 0 67.5-5.5T647 1560l-24-145q-20 5-42 8t-47 3q-87 0-132.5-54.5T356 1219V0H159z"/><glyph unicode="ƒ" horiz-adv-x="702" d="m-23-419 14 150q12-5 45.5-9t51.5-4q60 0 94 51.5T216-89V936H47v146h169v137q0 173 90.5 267.5T559 1581q34 0 68.5-5.5T704 1560l-24-150q-18 4-43.5 7t-52.5 3q-87 0-129-51.5T413 1219v-137h196V936H413V-89q0-167-85.5-257.5T88-437q-32 0-58 4.5T-23-419z"/><glyph unicode="Ơ" horiz-adv-x="1403" d="M108 598v259q0 266 159.5 443T682 1477q120 0 223-40t182-113q123 11 187 96.5t64 232.5h197q0-192-88-313.5T1197 1182q38-71 59-154t21-171V598q0-267-165.5-443T682-21q-255 0-414.5 176T108 598zm197 0q0-202 102.5-330T682 140q183 0 290.5 127.5T1080 598v261q0 200-108 328t-290 128q-172 0-274.5-128T305 859V598z"/><glyph unicode="ơ" horiz-adv-x="1175" d="M97 529v22q0 240 130 395.5T580 1102q102 0 187-35t149-98q82 18 122 84t40 170h178q0-143-66.5-237T994 860q35-66 53.5-144.5T1066 551v-22q0-242-130-396T582-21 227.5 133.5 97 529zm197 0q0-172 72.5-284T582 133q141 0 214 112t73 284v22q0 170-73.5 283T580 947q-141 0-213.5-113T294 551v-22z"/><glyph unicode="Ư" horiz-adv-x="1430" d="M147 489v967h197V489q0-167 95.5-261.5T686 133q160 0 260.5 94.5T1047 489v967h197v-178l6-2q86 27 132 108.5t46 206.5h190l3-5q2-193-96-314.5T1244 1116V489q0-240-156-375T686-21q-237 0-388 135.5T147 489z"/><glyph unicode="ư" horiz-adv-x="1204" d="M139 444v638h197V442q0-173 51-238t159-65q105 0 173.5 42.5T823 302v780h197V968l6-2q100 7 142.5 71t42.5 190h169l3-6q3-177-85.5-273T1020 838V0H843l-13 160Q779 73 699 26T514-21Q337-21 238 92t-99 352z"/><glyph unicode="ǰ" horiz-adv-x="523" d="m-68-419 14 150q14-5 46.5-9t50.5-4q59 0 93.5 51.5T171-89v1171h197V-89q0-167-86-257.5T43-437q-31 0-56.5 4.5T-68-419zm25 1902v20h166l147-148 147 148h170v-18l-257-245H211z"/><glyph unicode="Ǻ" horiz-adv-x="1295" d="m43 0 525 1456h169L1251 0h-201L922 375H374L244 0H43zm388 540h435l-212 625h-6zm45 1144q0 72 51 119.5t124 47.5q70 0 120-47.5t50-119.5-49.5-118-120.5-46q-73 0-124 46t-51 118zm88 0q0-35 25.5-59.5T651 1600q34 0 58.5 24t24.5 60q0 37-24.5 62.5T651 1772q-36 0-61.5-25.5T564 1684zm40 216 144 185h199l2-6-216-179H604z"/><glyph unicode="ǻ" horiz-adv-x="1126" d="M106 304q0 155 125.5 242.5T572 634h214v107q0 95-58 150.5T564 947q-96 0-155-48t-59-115l-187-2-2 6v13q1 110 111 203 118 98 303 98 184 0 296-93.5T983 739V218q0-58 6-112t22-106H808q-10 49-15.5 86.5T786 162Q731 84 642.5 31.5T452-21q-169 0-257.5 86.5T106 304zm197-4q0-72 45-114t133-42q107 0 193 55t112 126v176H565q-119 0-190.5-60T303 300zm80 1062q0 72 51 119.5t124 47.5q70 0 120-47.5t50-119.5-49.5-118-120.5-46q-73 0-124 46t-51 118zm88 0q0-35 25.5-59.5T558 1278q34 0 58.5 24t24.5 60q0 37-24.5 62.5T558 1450q-36 0-61.5-25.5T471 1362zm40 216 144 185h199l2-6-216-179H511z"/><glyph unicode="Ǽ" horiz-adv-x="1999" d="m14 0 881 1456h967v-155h-691l20-466h590V680h-584l22-526h705V0h-895l-15 350H457L256 0H14zm546 529h447l-31 710-5 2zm321 1068 185 266h230l2-6-269-260H881z"/><glyph unicode="ǽ" horiz-adv-x="1789" d="M88 304q0 157 115 243t335 86h229v87q0 106-52 166.5T566 947q-103 0-164-55t-61-133l-188 18-2 6q-5 138 110 228.5t305 90.5q114 0 201.5-40.5T905 944q64 75 151.5 116.5T1245 1102q214 0 329.5-130T1690 614V495H981l-2-5q1-159 79.5-258t233.5-99q103 0 169.5 27.5T1606 239l67-138q-53-44-147-83t-234-39q-136 0-240 48.5T882 166Q826 87 714.5 33T443-21q-170 0-262.5 87T88 304zm197-4q0-74 50-120.5T482 133q76 0 159 43.5T767 277v214H540q-120 0-187.5-55.5T285 300zm698 345 2-5h508v31q0 122-60 199t-188 77q-113 0-182-84.5T983 645zm-184 631 185 266h230l2-6-269-260H799z"/><glyph unicode="Ǿ" horiz-adv-x="1396" d="M113 598v259q0 266 159.5 443T687 1477q94 0 178.5-25.5T1022 1380l81 137h149l-132-221q77-84 119.5-197t42.5-242V598q0-267-165.5-443T687-21Q602-21 526.5-.5T387 60L296-94H147l139 234q-84 84-128.5 202T113 598zm197 0q0-85 19-158t54-125l6-1 544 916q-50 41-112 63t-134 22q-172 0-274.5-128T310 859V598zm165-390q44-34 97-51t115-17q183 0 290.5 127.5T1085 598v261q0 75-16.5 142t-46.5 117l-6 1zm133 1451 185 266h230l2-6-269-260H608z"/><glyph unicode="ǿ" d="M97 529v22q0 240 130 395.5T580 1102q56 0 107.5-11t97.5-31l74 149h129L884 998q88-74 135-190t47-257v-22q0-242-130-396T582-21q-51 0-97 8.5T397 12l-72-147H196L296 69q-96 71-147.5 191T97 529zm197 0q0-91 20-166.5T375 239h6l332 674q-29 16-62.5 25t-70.5 9q-141 0-213.5-113T294 551v-22zm175-373q24-12 52-17.5t61-5.5q141 0 214 112t73 284v22q0 80-17.5 150.5T802 819h-6zm-20 1118 185 266h230l2-6-269-260H449z"/><glyph unicode="Ș" horiz-adv-x="1252" d="m114 413 2 6h188q0-137 104-211.5T643 133q140 0 221.5 63T946 367q0 99-71 166T625 647q-222 55-346.5 162T154 1078q0 171 134 285t348 114q230-1 366-131 133-127 133-294v-10l-3-6H944q0 124-86.5 205T636 1322q-138 0-211.5-67T351 1081q0-95 80.5-158.5T693 811q220-57 335-168t115-274q0-176-138.5-283T643-21Q432-21 270 97 113 211 114 401v12zm363-909 61 246v131h158v-140L574-496h-97z"/><glyph unicode="ș" horiz-adv-x="1071" d="m109 329 2 6h188q5-105 78-153.5T548 133q105 0 164.5 44.5T772 291q0 65-49.5 106T535 469q-191 41-293.5 115T139 782q0 132 112.5 226t291.5 94q184 0 298-100 109-96 109-222v-11l-2-6H760q0 70-61.5 127T543 947q-104 0-155.5-47T336 788q0-64 44.5-99T564 625q199-42 302-119t103-201q0-144-116.5-235T548-21Q341-21 222 84 109 184 109 316v13zm278-824 61 246v131h158v-140L484-495h-97z"/><glyph unicode="ȷ" horiz-adv-x="523" d="m-68-419 14 150q14-5 46.5-9t50.5-4q59 0 93.5 51.5T171-89v1171h197V-89q0-167-86-257.5T43-437q-31 0-56.5 4.5T-68-419z"/><glyph unicode="ʼ" horiz-adv-x="516" d="m160 917 1 343v196h197v-193L257 917h-97z"/><glyph unicode="ˆ" horiz-adv-x="979" d="M171 1252v26l246 237h120l248-238v-25H624l-147 148-146-148H171z"/><glyph unicode="ˇ" horiz-adv-x="922" d="M140 1495v20h166l147-148 147 148h170v-18l-257-245H394z"/><glyph unicode="˘" horiz-adv-x="876" d="m134 1450 2 6h151q0-66 34-107t108-41q72 0 107 41.5t35 106.5h151l2-6q4-116-77-189t-218-73q-138 0-219 73t-76 189z"/><glyph unicode="˙" horiz-adv-x="556" d="M160 1255v201h218v-201H160z"/><glyph unicode="˚" horiz-adv-x="696" d="M165 1308q0 72 51.5 120.5T341 1477q72 0 122.5-48.5T514 1308q0-73-50.5-118.5T341 1144q-74 0-125 46t-51 118zm100 0q0-31 22.5-52.5T341 1234q30 0 51.5 21t21.5 53-21.5 54.5T341 1385q-32 0-54-22.5t-22-54.5z"/><glyph unicode="˛" horiz-adv-x="562" d="M68-223q0 80 60.5 152T316 57l72-57q-70-52-109.5-99.5T239-201q0-42 22.5-66t73.5-24q27 0 50 7.5t49 18.5l33-123q-36-19-79.5-31.5T284-432q-95 0-155.5 55T68-223z"/><glyph unicode="˜" horiz-adv-x="979" d="M135 1275q0 93 59 161.5t150 68.5q56 0 140-47t136-47q41 0 71 32.5t30 79.5l108-32q0-94-59.5-159T620 1267q-71 0-148 46.5T344 1360q-43 0-72-32.5t-29-78.5z"/><glyph unicode="˝" horiz-adv-x="762" d="m100 1252 184 266h211l2-5-240-261H100zm269 5 241 261h229l3-6-300-260H371z"/><glyph unicode="˳" horiz-adv-x="672" d="M182-234q0 65 45.5 107.5T339-84q63 0 108-42.5T492-234q0-63-44.5-104T339-379q-66 0-111.5 41T182-234zm89 0q0-26 20-45t48-19q26 0 45 18.5t19 45.5q0 30-19 49.5T339-165q-28 0-48-20t-20-49z"/><glyph unicode="̀" horiz-adv-x="0" d="m-793.844 1607.31 2.09 7.922h160.315l121.979-351.203h-110.13z"/><glyph unicode="́" horiz-adv-x="0" d="m-638.569 1263.92 126.296 352.242h157.016l1.365-7.945-183.64-344.297H-638.57z"/><glyph unicode="̃" horiz-adv-x="0" d="M-884 1275q0 93 59 161.5t150 68.5q56 0 140-47t136-47q41 0 71 32.5t30 79.5l108-32q0-94-59.5-159t-149.5-65q-71 0-148 46.5t-128 46.5q-43 0-72-32.5t-29-78.5z"/><glyph unicode="̉" horiz-adv-x="0" d="m-677 1546 7 108q147 0 226-51.5t79-137.5q0-70-43-106.5t-108-45.5l-1-71h-140l-1 154q76 4 108.5 20t32.5 53q0 39-43.5 58t-116.5 19z"/><glyph unicode="̏" horiz-adv-x="0" d="m-980 1512 3 6h229l241-261-2-5h-171zm344 1 2 5h212l184-266h-157z"/><glyph unicode="̣" horiz-adv-x="0" d="M-708-137h218v-200h-218v200z"/><glyph unicode="΄" horiz-adv-x="526" d="m206 1272 30 271h208l-155-271h-83z"/><glyph unicode="΅" horiz-adv-x="1045" d="M161 1256v200h198v-200H161zm285 212 51 262h218l-127-262H446zm224-212v200h199v-200H670z"/><glyph unicode="Ά" horiz-adv-x="1295" d="m43 0 525 1456h169L1251 0h-201L922 375H374L244 0H43zm388 540h435l-212 625h-6zm-232 732 30 271h208l-155-271h-83z"/><glyph unicode="·" horiz-adv-x="541" d="M161 624v212h198V624H161z"/><glyph unicode="Έ" horiz-adv-x="1130" d="M170 0v1456h886v-155H367V830h598V675H367V154h700V0H170zm-298 1274 30 271h208l-155-271h-83z"/><glyph unicode="Ή" horiz-adv-x="1441" d="M170 0v1456h197V798h707v658h197V0h-197v643H367V0H170zM-79 1274l30 271h208L4 1274h-83z"/><glyph unicode="Ί" horiz-adv-x="579" d="M190 0v1456h198V0H190zM-65 1273l30 271h208L18 1273h-83z"/><glyph unicode="Ό" horiz-adv-x="1396" d="M113 598v259q0 266 159.5 443T687 1477q264 0 429.5-176.5T1282 857V598q0-267-165.5-443T687-21q-255 0-414.5 176T113 598zm197 0q0-202 102.5-330T687 140q183 0 290.5 127.5T1085 598v261q0 200-108 328t-290 128q-172 0-274.5-128T310 859V598zM60 1272l30 271h208l-155-271H60z"/><glyph unicode="Ύ" horiz-adv-x="1295" d="M40 1456h225l380-740 380 740h225L739 512V0H543v527zm-236-184 30 271H42l-155-271h-83z"/><glyph unicode="Ώ" horiz-adv-x="1366" d="M112 722v116q0 284 154.5 461.5T670 1477t404.5-177.5T1230 838V722q0-167-69.5-321T973 154h259V0H735v159q141 25 219.5 168.5T1033 722v118q0 233-96.5 357.5T670 1322q-169 0-265-124.5T309 840V722q0-251 80.5-395T613 159V0H118v154h253q-120 92-189.5 246.5T112 722zm-61 550 30 271h208l-155-271H51z"/><glyph unicode="ΐ" horiz-adv-x="672" d="M197 279v802h197V268q0-73 26.5-101t71.5-28q25 0 49 7.5t42 18.5l44-133q-45-31-89.5-42T440-21q-119 0-181 71t-62 229zm-249 904v200h198v-200H-52zm285 212 51 262h218l-127-262H233zm224-212v200h199v-200H457z"/><glyph unicode="Α" horiz-adv-x="1295" d="m43 0 525 1456h169L1251 0h-201L922 375H374L244 0H43zm388 540h435l-212 625h-6z"/><glyph unicode="Β" horiz-adv-x="1302" d="M170 0v1456h475q228 0 357-98.5t129-295.5q0-94-58-168.5T919 780q143-20 226.5-124t83.5-245q0-200-130-305.5T747 0H170zm197 154h380q135 0 209.5 66.5T1031 409q0 121-76 195t-205 79H367V154zm0 683h319q110 0 179 60.5t69 168.5q0 118-74.5 176.5T645 1301H367V837z"/><glyph unicode="Γ" horiz-adv-x="1123" d="M163 0v1456h893v-155H360V0H163z"/><glyph unicode="Δ" horiz-adv-x="1447" d="m30 0 617 1456h169L1392 0H30zm264 154h838L732 1204h-6z"/><glyph unicode="∆" horiz-adv-x="1447" d="m30 0 617 1456h169L1392 0H30zm264 154h838L732 1204h-6z"/><glyph unicode="Ε" horiz-adv-x="1130" d="M170 0v1456h886v-155H367V830h598V675H367V154h700V0H170z"/><glyph unicode="Ζ" horiz-adv-x="1225" d="M97 0v146l778 1155H108v155h992v-141L319 154h814V0H97z"/><glyph unicode="Η" horiz-adv-x="1441" d="M170 0v1456h197V798h707v658h197V0h-197v643H367V0H170z"/><glyph unicode="Θ" horiz-adv-x="1396" d="M113 598v259q0 266 159.5 443T687 1477q264 0 429.5-176.5T1282 857V598q0-267-165.5-443T687-21q-255 0-414.5 176T113 598zm197 0q0-202 102.5-330T687 140q183 0 290.5 127.5T1085 598v261q0 200-108 328t-290 128q-172 0-274.5-128T310 859V598zm140 61v154h509V659H450z"/><glyph unicode="Ι" horiz-adv-x="579" d="M190 0v1456h198V0H190z"/><glyph unicode="Κ" horiz-adv-x="1302" d="M170 0v1456h197V812h108l540 644h222l2-5-590-689L1281 5l-2-5h-239L495 658H367V0H170z"/><glyph unicode="Λ" horiz-adv-x="1345" d="m49 0 534 1456h170L1287 0h-201L671 1171h-6L250 0H49z"/><glyph unicode="Μ" horiz-adv-x="1779" d="M170 0v1456h259L892 273h6l465 1183h245V0h-197v1091l-6 1L964 0H827L373 1128l-6-1V0H170z"/><glyph unicode="Ν" horiz-adv-x="1442" d="M170 0v1456h197l701-1111 6 2v1109h197V0h-197L373 1112l-6-2V0H170z"/><glyph unicode="Ξ" horiz-adv-x="1173" d="M123 0v154h937V0H123zm1 1301v155h924v-155H124zm82-623v155h761V678H206z"/><glyph unicode="Ο" horiz-adv-x="1396" d="M113 598v259q0 266 159.5 443T687 1477q264 0 429.5-176.5T1282 857V598q0-267-165.5-443T687-21q-255 0-414.5 176T113 598zm197 0q0-202 102.5-330T687 140q183 0 290.5 127.5T1085 598v261q0 200-108 328t-290 128q-172 0-274.5-128T310 859V598z"/><glyph unicode="Π" horiz-adv-x="1439" d="M168 0v1456h1103V0h-197v1301H365V0H168z"/><glyph unicode="Ρ" horiz-adv-x="1302" d="M170 0v1456h557q233 0 362.5-120t129.5-316q0-198-129.5-317T727 584H367V0H170zm197 738h360q148 0 221 79.5t73 200.5-73.5 202-220.5 81H367V738z"/><glyph unicode="Σ" horiz-adv-x="1173" d="M70 0v147l480 581-480 581v147h976v-155H316l-3-5 445-557v-24L313 160l3-5h780V0H70z"/><glyph unicode="Τ" horiz-adv-x="1225" d="M37 1301v155h1151v-155H708V0H511v1301H37z"/><glyph unicode="Υ" horiz-adv-x="1295" d="M40 1456h225l380-740 380 740h225L739 512V0H543v527z"/><glyph unicode="Φ" horiz-adv-x="1439" d="M84 721q0 219 153.5 362T623 1230v226h197v-227q230-5 383.5-146.5T1357 723q0-221-153.5-363.5T820 213V0H623v213q-232 3-385.5 145T84 721zm195 0q0-161 88.5-254.5T617 374l6 2v691l-6 2q-160 1-249-93.5T279 721zm541-345 6-2q157-1 246 93.5t89 255.5q0 159-89 252.5T826 1069l-6-2V376z"/><glyph unicode="Χ" horiz-adv-x="1295" d="m66 0 472 734-462 722h236l338-568 340 568h238L766 734 1238 0h-235L654 578 304 0H66z"/><glyph unicode="Ψ" horiz-adv-x="1416" d="M87 885v571h196V885q0-170 82-275t218-125l6 1v970h198V485l6-2q144 19 230.5 124.5T1110 885v571h197V885q0-245-143-393.5T787 319V0H589v320q-227 24-364.5 172T87 885z"/><glyph unicode="Ω" horiz-adv-x="1366" d="M112 722v116q0 284 154.5 461.5T670 1477t404.5-177.5T1230 838V722q0-167-69.5-321T973 154h259V0H735v159q141 25 219.5 168.5T1033 722v118q0 233-96.5 357.5T670 1322q-169 0-265-124.5T309 840V722q0-251 80.5-395T613 159V0H118v154h253q-120 92-189.5 246.5T112 722z"/><glyph unicode="Ω" horiz-adv-x="1366" d="M112 722v116q0 284 154.5 461.5T670 1477t404.5-177.5T1230 838V722q0-167-69.5-321T973 154h259V0H735v159q141 25 219.5 168.5T1033 722v118q0 233-96.5 357.5T670 1322q-169 0-265-124.5T309 840V722q0-251 80.5-395T613 159V0H118v154h253q-120 92-189.5 246.5T112 722z"/><glyph unicode="Ϊ" horiz-adv-x="579" d="M190 0v1456h198V0H190zM-54 1605v200h219v-200H-54zm470 0v200h219v-200H416z"/><glyph unicode="Ϋ" horiz-adv-x="1295" d="M40 1456h225l380-740 380 740h225L739 512V0H543v527zm262 148v200h219v-200H302zm470 0v200h219v-200H772z"/><glyph unicode="ά" horiz-adv-x="1158" d="M98 500v21q0 261 111.5 421T522 1102q101 0 178.5-36T833 962l51 119h117V276q0-72 20.5-100t55.5-28q15 0 28 1.5t24 5.5l23-142q-29-20-59-27t-67-7q-75 0-125 32t-74 101q-55-66-131.5-99.5T520-21q-198 0-310 143.5T98 500zm197 0q0-164 67.5-265.5T570 133q81 0 138 35.5t96 99.5v549q-39 60-96.5 95T572 947q-141 0-209-119.5T295 521v-21zm284 779 30 271h208l-155-271h-83z"/><glyph unicode="έ" horiz-adv-x="1103" d="M98 305q0 91 51.5 155T300 556q-87 35-135 96t-48 134q0 150 116.5 232t317.5 82q183 0 307.5-87.5T978 786l-2-6H790q0 70-69.5 119T551 948q-116 0-176.5-47.5T314 786q0-74 54.5-116.5T538 627h209V477H538q-121 0-181.5-42.5T296 305q0-73 68.5-123T551 132q112 0 184.5 56T808 320h186l2-6q5-162-128-247.5T551-19q-202 0-327.5 86.5T98 305zm407 973 30 271h208l-155-271h-83z"/><glyph unicode="ή" d="M143 0v1082h176l13-150q54 81 134 125.5t181 44.5q177 0 271.5-97.5T1013 683V-415H816V679q0 143-57 205.5T586 947q-85 0-146.5-33.5T340 820V0H143zm389 1279 30 271h208l-155-271h-83z"/><glyph unicode="ί" horiz-adv-x="672" d="M197 279v802h197V268q0-73 26.5-101t71.5-28q25 0 49 7.5t42 18.5l44-133q-45-31-89.5-42T440-21q-119 0-181 71t-62 229zm59 980 30 271h208l-155-271h-83z"/><glyph unicode="ΰ" d="M141 472v610h197V470q0-175 69-256t186-81q137 0 204.5 126.5T865 562q-3 126-36 255t-88 265h206q51-107 83-236.5t32-283.5q0-255-111-419T603-21q-221 0-341.5 121T141 472zm104 711v200h198v-200H245zm285 212 51 262h218l-127-262H530zm224-212v200h199v-200H754z"/><glyph unicode="α" horiz-adv-x="1158" d="M98 500v21q0 261 111.5 421T522 1102q101 0 178.5-36T833 962l51 119h117V276q0-72 20.5-100t55.5-28q15 0 28 1.5t24 5.5l23-142q-29-20-59-27t-67-7q-75 0-125 32t-74 101q-55-66-131.5-99.5T520-21q-198 0-310 143.5T98 500zm197 0q0-164 67.5-265.5T570 133q81 0 138 35.5t96 99.5v549q-39 60-96.5 95T572 947q-141 0-209-119.5T295 521v-21z"/><glyph unicode="β" horiz-adv-x="1213" d="M157-383v1456q0 165 133 284.5T607 1477q195 0 313-110t118-284q0-91-50-167.5T851 794q119-44 185.5-142t66.5-227q0-209-126.5-327.5T648-21q-82 0-158.5 22.5T354 70v-453H157zm197 626q44-52 114.5-81T628 133q129 0 203.5 80T906 421q0 112-65.5 198T664 705H521v155h82q122 0 180 60.5t58 166.5q0 95-62.5 165T607 1322q-107 0-180-71.5T354 1073V243z"/><glyph unicode="γ" horiz-adv-x="1031" d="M46 1082h202l256-763 17-76h6l19 76 249 763h201L621 62v-479H424V67z"/><glyph unicode="δ" d="M97 529v22q0 215 105.5 364.5T493 1095l7 1 2 6-297 236v118h733v-151H484l-2-6 371-277q101-75 157-198t56-273v-22q0-242-130-396T582-21 227.5 133.5 97 529zm197 0q0-172 72.5-284T582 133q141 0 214 112t73 284v22q0 170-73.5 283T580 947q-141 0-213.5-113T294 551v-22z"/><glyph unicode="ε" horiz-adv-x="1103" d="M98 305q0 91 51.5 155T300 556q-87 35-135 96t-48 134q0 150 116.5 232t317.5 82q183 0 307.5-87.5T978 786l-2-6H790q0 70-69.5 119T551 948q-116 0-176.5-47.5T314 786q0-74 54.5-116.5T538 627h209V477H538q-121 0-181.5-42.5T296 305q0-73 68.5-123T551 132q112 0 184.5 56T808 320h186l2-6q5-162-128-247.5T551-19q-202 0-327.5 86.5T98 305z"/><glyph unicode="ζ" horiz-adv-x="1071" d="M115 1301v155h855v-112L628 912Q499 759 442.5 645.5T386 387q0-116 52.5-174.5T593 154h32q159 0 249-63.5T964-101q-2-111-79.5-193.5T698-424l-81 127q66 31 113 74t47 113q0 52-41 81T605 0h-52Q374 0 281.5 107T189 382q0 120 69.5 280.5T472 992l268 304-2 5H115z"/><glyph unicode="η" d="M143 0v1082h176l13-150q54 81 134 125.5t181 44.5q177 0 271.5-97.5T1013 683V-415H816V679q0 143-57 205.5T586 947q-85 0-146.5-33.5T340 820V0H143z"/><glyph unicode="θ" horiz-adv-x="1165" d="M119 514v428q0 245 125.5 390T581 1477q212 0 338.5-145T1046 942V514q0-247-125.5-391T583-21q-211 0-337.5 144T119 514zm197-40q0-157 70.5-249T583 133q128 0 197 91.5T849 474v174H316V474zm0 329h533v180q0 157-70 248t-198 91q-127 0-196-91t-69-248V803z"/><glyph unicode="ι" horiz-adv-x="672" d="M197 279v802h197V268q0-73 26.5-101t71.5-28q25 0 49 7.5t42 18.5l44-133q-45-31-89.5-42T440-21q-119 0-181 71t-62 229z"/><glyph unicode="κ" horiz-adv-x="1144" d="M153 0v1082h197V625h84l388 457h231l2-5-450-514L1088 5l-2-5H845L451 459H350V0H153z"/><glyph unicode="λ" d="m56 0 391 1028-55 145q-32 84-75.5 137T213 1363q-10 0-37-2.5t-31-2.5v145q20 5 51.5 10t55.5 5q129 0 205.5-81T574 1248l360-946q22-71 57.5-113t79.5-42q14 0 18.5.5t28.5 4.5l-3-154q-11-5-29.5-10t-29.5-5q-118 0-189.5 65T742 253L540 784l-6-1-29-113L275 0H56z"/><glyph unicode="μ" d="M153-416v1498h196V440q2-178 57.5-242.5T562 133q98 0 158.5 36T813 275v807h197V0H833l-9 108q-44-63-107.5-96T570-21q-72 0-126.5 16.5T349 47v-463H153z"/><glyph unicode="ν" horiz-adv-x="1030" d="M46 1082h202l256-763 17-76h6l19 76 249 763h201L598 0H449z"/><glyph unicode="ξ" horiz-adv-x="1043" d="M86 1301v155h836v-155H626q-123-8-185.5-73T378 1067q0-94 72.5-146.5T677 868h143V713H677q-187 0-284.5-78T295 404q0-120 80-195t221-75h60q161 0 250-63.5T995-122q-2-111-79.5-193T729-444l-79 127q65 31 112 73.5T809-131q0 52-35 82T664-19h-68Q374-19 236 94.5T98 408q0 145 79.5 243.5T409 794q-108 40-168 110.5T181 1063q0 77 30.5 137.5T301 1301H86z"/><glyph unicode="ο" d="M97 529v22q0 240 130 395.5T580 1102q225 0 355.5-155T1066 551v-22q0-242-130-396T582-21 227.5 133.5 97 529zm197 0q0-172 72.5-284T582 133q141 0 214 112t73 284v22q0 170-73.5 283T580 947q-141 0-213.5-113T294 551v-22z"/><glyph unicode="π" horiz-adv-x="1189" d="M79 926v156h1039V926H995V268q0-73 26.5-101t71.5-28q25 0 49 7.5t42 18.5l44-133q-45-31-89.5-42T1041-21q-119 0-181 71t-62 229v647H431V0H234v926H79z"/><glyph unicode="ρ" d="M143-416v993q0 247 128.5 386T592 1102q227 0 347.5-158.5T1060 521v-21q0-235-109.5-378T644-21q-97 0-173 30T340 97v-513H143zm197 691q37-67 97-104.5T584 133q139 0 209 102t70 265v21q0 189-66 307.5T592 947q-123 0-187.5-115.5T340 576V275z"/><glyph unicode="ς" horiz-adv-x="1102" d="M98 520v42q0 227 127.5 383.5T573 1102q187 0 303.5-104.5T989 715l-2-6H809q0 103-61 170.5T573 947q-138 0-208-115t-70-270v-42q0-143 82-243.5T625 152q180-26 264-79t84-176q-2-111-79.5-193T707-425l-81 127q66 31 113 73.5T786-112q0 48-44 73.5T603 0Q352 35 225 170T98 520z"/><glyph unicode="σ" d="M97 529v22q0 231 129.5 380.5T579 1082h569V926H871q94-72 144.5-178t50.5-236v-22q0-210-132-360.5T582-21q-224 0-354.5 154.5T97 529zm197 0q0-172 72.5-284T582 133q141 0 214 112t73 284v22q0 161-73.5 268T580 926q-141 0-213.5-107T294 551v-22z"/><glyph unicode="τ" horiz-adv-x="1072" d="M81 929v153h907V929H630V0H433v929H81z"/><glyph unicode="υ" d="M141 472v610h197V470q0-175 69-256t186-81q137 0 204.5 126.5T865 562q-3 126-36 255t-88 265h206q51-107 83-236.5t32-283.5q0-255-111-419T603-21q-221 0-341.5 121T141 472z"/><glyph unicode="φ" horiz-adv-x="1450" d="M83 564q0 153 32 281.5t84 236.5h206q-57-134-90-263t-35-255q0-155 81.5-274T611 148l6 2v932h197q228 0 390.5-160.5T1367 524q0-218-135.5-367.5T814-16v-462H617v462Q343 9 213 169.5T83 564zm731-417 6-2q177 21 263.5 129.5T1170 524q-4 163-97 281.5T820 920l-6-2V147z"/><glyph unicode="χ" d="M95 937v145q20 5 51.5 10t55.5 5q129 0 204.5-80T524 829l92-222h6l233 475h198L712 375l204-492q33-75 64-114.5t73-39.5q14 0 19 1t27 4l-3-156q-10-6-28-10.5t-31-4.5q-116 0-185.5 65T729-165L602 135h-6L331-415H122l383 782-163 386q-33 83-76 136t-103 53q-10 0-37-2.5T95 937z"/><glyph unicode="ψ" horiz-adv-x="1440" d="M91 596v486h197V594q0-207 84.5-316.5T601 149l6 2v930h198V149l6-2q177 23 263 143.5t86 276.5q-3 125-36 253.5t-89 261.5h207q51-106 83-234t32-281q0-240-133-401T805-17v-457H607v459Q360 10 225.5 161T91 596z"/><glyph unicode="ω" horiz-adv-x="1741" d="M108 562q0 155 42.5 285T263 1082h206q-74-134-117-263.5T305 562q0-190 56-309.5T537 133q107 0 170.5 81T771 470v300h198V470q0-175 63-256t171-81q120 0 176 118.5t56 310.5q-5 127-48 256.5T1271 1082h207q68-106 111-236t43-284q0-255-101-419T1214-21q-127 0-214.5 61T870 220Q827 101 739.5 40T527-21q-217 0-318 164T108 562z"/><glyph unicode="ϊ" horiz-adv-x="672" d="M197 279v802h197V268q0-73 26.5-101t71.5-28q25 0 49 7.5t42 18.5l44-133q-45-31-89.5-42T440-21q-119 0-181 71t-62 229zm-238 983v200h219v-200H-41zm470 0v200h219v-200H429z"/><glyph unicode="ϋ" d="M141 472v610h197V470q0-175 69-256t186-81q137 0 204.5 126.5T865 562q-3 126-36 255t-88 265h206q51-107 83-236.5t32-283.5q0-255-111-419T603-21q-221 0-341.5 121T141 472zm115 790v200h219v-200H256zm470 0v200h219v-200H726z"/><glyph unicode="ό" d="M97 529v22q0 240 130 395.5T580 1102q225 0 355.5-155T1066 551v-22q0-242-130-396T582-21 227.5 133.5 97 529zm197 0q0-172 72.5-284T582 133q141 0 214 112t73 284v22q0 170-73.5 283T580 947q-141 0-213.5-113T294 551v-22zm242 750 30 271h208l-155-271h-83z"/><glyph unicode="ύ" d="M141 472v610h197V470q0-175 69-256t186-81q137 0 204.5 126.5T865 562q-3 126-36 255t-88 265h206q51-107 83-236.5t32-283.5q0-255-111-419T603-21q-221 0-341.5 121T141 472zm413 787 30 271h208l-155-271h-83z"/><glyph unicode="ώ" horiz-adv-x="1741" d="M108 562q0 155 42.5 285T263 1082h206q-74-134-117-263.5T305 562q0-190 56-309.5T537 133q107 0 170.5 81T771 470v300h198V470q0-175 63-256t171-81q120 0 176 118.5t56 310.5q-5 127-48 256.5T1271 1082h207q68-106 111-236t43-284q0-255-101-419T1214-21q-127 0-214.5 61T870 220Q827 101 739.5 40T527-21q-217 0-318 164T108 562zm716 697 30 271h208l-155-271h-83z"/><glyph unicode="ϑ" horiz-adv-x="1265" d="M113 592v660l197 2V592q0-200 91-326t246-126q165 0 260 118.5t97 326.5q-218 8-350.5 133.5T521 1036v62q0 172 94.5 275.5T861 1477q157 0 248-101t91-278V592q0-278-152.5-445.5T647-21q-238 0-386 174T113 592zm605 442q0-120 75-199t205-83l6 2v344q0 108-36.5 162.5T861 1315q-66 0-104.5-54.5T718 1098v-64z"/><glyph unicode="ϒ" horiz-adv-x="1089" d="M-22 1443q24 14 49 19t60 5q80 0 141.5-52T342 1239l178-406 19-70h6l19 70 178 406q51 124 112.5 176t142.5 52q34 0 59-5t51-19l-23-152q-5 3-16 5.5t-24 2.5q-33 0-60.5-17.5T940 1225L640 578V0H444v578l-300 647q-17 39-44.5 56.5T40 1299q-14 0-24.5-2.5T0 1291z"/><glyph unicode="ϖ" horiz-adv-x="1608" d="M78 926v156h1483V926h-133q29-81 45.5-172t16.5-192q0-254-87-418.5T1132-21q-119 0-201.5 60.5T808 216Q767 99 685 39T485-21q-185 0-271.5 164.5T127 562q0 101 16 192t46 172H78zm246-364q0-190 41.5-309.5T496 133q98 0 156 81t58 256v250h198V470q0-175 57.5-256t156.5-81q87 0 129 119t42 310q-3 89-23 180t-54 184H401q-35-94-55-185t-22-179z"/><glyph unicode="Ѐ" horiz-adv-x="1130" d="M170 0v1456h886v-155H367V830h598V675H367V154h700V0H170zm124 1861 3 6h230l175-266H544z"/><glyph unicode="Ё" horiz-adv-x="1130" d="M170 0v1456h886v-155H367V830h598V675H367V154h700V0H170zm105 1605v200h219v-200H275zm470 0v200h219v-200H745z"/><glyph unicode="Ђ" horiz-adv-x="1514" d="M57 1301v155h1151v-155H728V880h181q235 0 383-128t148-348q-2-138-99.5-279T1053-50l-51 148q128 34 184 112.5t56 193.5q-1 147-92 229t-241 82H728V0H531v1301H57z"/><glyph unicode="Ѓ" horiz-adv-x="1123" d="M163 0v1456h893v-155H360V0H163zm357 1597 185 266h230l2-6-269-260H520z"/><glyph unicode="Є" horiz-adv-x="1386" d="M135 599v259q0 269 155.5 444.5T693 1478t393-131.5T1228 998l-2-6h-189q0 153-90 242t-254 89q-165 0-263-133t-98-330v-47h562V659H332v-60q0-199 98-332t263-133q164 0 254 88.5t90 244.5h189l2-6q4-205-144-343T693-20q-247 0-402.5 175T135 599z"/><glyph unicode="Ѕ" horiz-adv-x="1252" d="m114 413 2 6h188q0-137 104-211.5T643 133q140 0 221.5 63T946 367q0 99-71 166T625 647q-222 55-346.5 162T154 1078q0 171 134 285t348 114q230 0 366.5-130.5T1135 1042l-3-6H944q0 124-86.5 205T636 1322q-138 0-211.5-67T351 1081q0-95 80.5-158.5T693 811q220-57 335-168t115-274q0-176-138.5-283T643-21Q432-21 270.5 97T114 413z"/><glyph unicode="І" horiz-adv-x="579" d="M190 0v1456h198V0H190z"/><glyph unicode="Ї" horiz-adv-x="579" d="M190 0v1456h198V0H190zM-54 1605v200h219v-200H-54zm470 0v200h219v-200H416z"/><glyph unicode="Ј" horiz-adv-x="1123" d="m79 395 2 6h189q0-136 63-202t179-66q109 0 178 79t69 210v1034h197V422q0-203-123.5-323T512-21Q311-21 192 86 79 188 79 379v16z"/><glyph unicode="Љ" horiz-adv-x="2201" d="M50 0v154h40q150 0 216 142.5T373 770v686h898V889h359q232 0 361.5-123.5T2121 444t-129.5-321T1630 0h-556v1301H570l-1-531q-1-401-108.5-585.5T102 0H50zm1221 154h359q147 0 220.5 84.5T1924 446q0 121-73.5 205T1630 735h-359V154z"/><glyph unicode="Њ" horiz-adv-x="2201" d="M168 0v1456h197V827h709v629h197V840h359q233 0 362-114t129-302q0-189-129.5-306.5T1630 0h-556v673H365V0H168zm1103 165h359q148 0 221 74t73 187q0 112-73 185.5T1630 685h-359V165z"/><glyph unicode="Ћ" horiz-adv-x="1670" d="M73 1301v155h1151v-155H744V961h294q238 0 363.5-110.5T1527 501V0h-197v501q0 168-70 236.5T1038 806H744V0H547v1301H73z"/><glyph unicode="Ќ" horiz-adv-x="1302" d="M170 0v1456h197V812h108l540 644h222l2-5-590-689L1281 5l-2-5h-239L495 658H367V0H170zm344 1509 185 266h230l2-6-269-260H514z"/><glyph unicode="Ѝ" horiz-adv-x="1440" d="M173 0v1456h197V347l6-2 701 1111h197V0h-197v1110l-6 2L370 0H173zm228 1861 3 6h230l175-266H651z"/><glyph unicode="Ў" horiz-adv-x="1297" d="M66 1456h221l281-681 74-191h6l348 872h228L695 239Q639 115 559 47T325-21q-65 0-121.5 11T114 16l25 144q33-10 81-18.5t84-8.5q82 0 131 42.5T514 285l39 83zm286 408 2 6h151q0-66 34-107t108-41q72 0 107 41.5t35 106.5h151l2-6q4-116-77-189t-218-73q-138 0-219 73t-76 189z"/><glyph unicode="Џ" horiz-adv-x="1439" d="M168 0v1456h197V154h709v1302h197V0H825v-359H628V0H168z"/><glyph unicode="А" horiz-adv-x="1295" d="m43 0 525 1456h169L1251 0h-201L922 375H374L244 0H43zm388 540h435l-212 625h-6z"/><glyph unicode="Б" horiz-adv-x="1292" d="M163 0v1456h893v-155H360V880h359q233 0 362.5-119.5T1211 444q0-198-130-321T719 0H163zm197 154h359q147 0 221 84.5t74 207.5q0 119-73.5 199T719 725H360V154z"/><glyph unicode="В" horiz-adv-x="1302" d="M170 0v1456h475q228 0 357-98.5t129-295.5q0-94-58-168.5T919 780q143-20 226.5-124t83.5-245q0-200-130-305.5T747 0H170zm197 154h380q135 0 209.5 66.5T1031 409q0 121-76 195t-205 79H367V154zm0 683h319q110 0 179 60.5t69 168.5q0 118-74.5 176.5T645 1301H367V837z"/><glyph unicode="Г" horiz-adv-x="1123" d="M163 0v1456h893v-155H360V0H163z"/><glyph unicode="Д" horiz-adv-x="1575" d="M54 154h104q132 0 197.5 181.5T439 867l33 589h847V154h199v-511h-197V0H251v-359H54v513zm413 0h655v1147H661l-23-434q-13-249-53.5-427.5T467 154z"/><glyph unicode="Е" horiz-adv-x="1130" d="M170 0v1456h886v-155H367V830h598V675H367V154h700V0H170z"/><glyph unicode="Ж" horiz-adv-x="1687" d="m26 0 495 770-455 686h230l388-633h65v633h196V823h57l388 633h230l-455-685L1660 0h-245L999 668h-54V0H749v668h-63L271 0H26z"/><glyph unicode="З" horiz-adv-x="1385" d="m125 398 2 6h188q0-114 99-192.5T670 133q178 0 279 74.5T1050 402q0 133-92 197.5T686 664H503v156h183q174 0 258 66t84 180q0 112-90.5 184T670 1322q-141 0-237.5-71T336 1075H148l-1 6q-6 176 146.5 286T670 1477q257 0 406-108t149-307q0-101-68-184.5T969 747q135-42 206.5-129t71.5-212q0-201-159.5-314T670-21Q444-21 282 86T125 398z"/><glyph unicode="И" horiz-adv-x="1440" d="M173 0v1456h197V347l6-2 701 1111h197V0h-197v1110l-6 2L370 0H173z"/><glyph unicode="Й" horiz-adv-x="1440" d="M173 0v1456h197V347l6-2 701 1111h197V0h-197v1110l-6 2L370 0H173zm259 1864 2 6h151q0-66 34-107t108-41q72 0 107 41.5t35 106.5h151l2-6q4-116-77-189t-218-73q-138 0-219 73t-76 189z"/><glyph unicode="К" horiz-adv-x="1302" d="M170 0v1456h197V812h108l540 644h222l2-5-590-689L1281 5l-2-5h-239L495 658H367V0H170z"/><glyph unicode="Л" horiz-adv-x="1439" d="M49 0v154h41q138 0 199 142.5T351 770l1 686h919V0h-197v1301H548l-1-531q0-400-103-585T102 0H49z"/><glyph unicode="М" horiz-adv-x="1779" d="M170 0v1456h259L892 273h6l465 1183h245V0h-197v1091l-6 1L964 0H827L373 1128l-6-1V0H170z"/><glyph unicode="Н" horiz-adv-x="1441" d="M170 0v1456h197V798h707v658h197V0h-197v643H367V0H170z"/><glyph unicode="О" horiz-adv-x="1396" d="M113 598v259q0 266 159.5 443T687 1477q264 0 429.5-176.5T1282 857V598q0-267-165.5-443T687-21q-255 0-414.5 176T113 598zm197 0q0-202 102.5-330T687 140q183 0 290.5 127.5T1085 598v261q0 200-108 328t-290 128q-172 0-274.5-128T310 859V598z"/><glyph unicode="П" horiz-adv-x="1439" d="M168 0v1456h1103V0h-197v1301H365V0H168z"/><glyph unicode="Р" horiz-adv-x="1302" d="M170 0v1456h557q233 0 362.5-120t129.5-316q0-198-129.5-317T727 584H367V0H170zm197 738h360q148 0 221 79.5t73 200.5-73.5 202-220.5 81H367V738z"/><glyph unicode="С" horiz-adv-x="1297" d="M118 598v259q0 269 155.5 444.5T676 1477q247 1 393-131 142-128 142-337v-12l-2-6h-189q0 153-90 242t-254 89q-165 0-263-133t-98-330V598q0-199 98-332t263-133q164 0 254 88.5t90 244.5h189l2-6v-11q0-198-144-332Q919-21 676-21q-247 0-402.5 175T118 598z"/><glyph unicode="Т" horiz-adv-x="1225" d="M37 1301v155h1151v-155H708V0H511v1301H37z"/><glyph unicode="У" horiz-adv-x="1297" d="M66 1456h221l281-681 74-191h6l348 872h228L695 239Q639 115 559 47T325-21q-65 0-121.5 11T114 16l25 144q33-10 81-18.5t84-8.5q82 0 131 42.5T514 285l39 83z"/><glyph unicode="Ф" horiz-adv-x="1439" d="M84 721q0 219 153.5 362T623 1230v226h197v-227q230-5 383.5-146.5T1357 723q0-221-153.5-363.5T820 213V0H623v213q-232 3-385.5 145T84 721zm195 0q0-161 88.5-254.5T617 374l6 2v691l-6 2q-160 1-249-93.5T279 721zm541-345 6-2q157-1 246 93.5t89 255.5q0 159-89 252.5T826 1069l-6-2V376z"/><glyph unicode="Х" horiz-adv-x="1295" d="m66 0 472 734-462 722h236l338-568 340 568h238L766 734 1238 0h-235L654 578 304 0H66z"/><glyph unicode="Ц" horiz-adv-x="1533" d="M161 0v1456h197V155h709v1301h197V160h189v-519h-197V0H161z"/><glyph unicode="Ч" horiz-adv-x="1397" d="M147 996v460h198V996q0-165 69-228.5T636 704q104 0 200 14t195 41v697h197V0h-197v603q-95-29-184-42t-211-13q-241 0-365 105.5T147 996z"/><glyph unicode="Ш" horiz-adv-x="2079" d="M164 0v1456h197V154h592v1302h196V154h589v1302h197V0H164z"/><glyph unicode="Щ" horiz-adv-x="2148" d="M164 0v1456h197V154h592v1302h196V154h589v1302h197V157h170v-517h-197V0H164z"/><glyph unicode="Ъ" horiz-adv-x="1458" d="M0 1301v155h523V880h359q233 0 362.5-119.5T1374 444q0-198-130-321T882 0H326v1301H0zM523 154h359q147 0 221 84.5t74 207.5q0 119-73.5 199T882 725H523V154z"/><glyph unicode="Ы" horiz-adv-x="1749" d="M163 0v1456h197V880h359q233 0 362.5-119.5T1211 444q0-198-130-321T719 0H163zm197 154h359q147 0 221 84.5t74 207.5q0 119-73.5 199T719 725H360V154zM1388 0v1456h198V0h-198z"/><glyph unicode="Ь" horiz-adv-x="1290" d="M163 0v1456h197V880h359q233 0 362.5-119.5T1211 444q0-198-130-321T719 0H163zm197 154h359q147 0 221 84.5t74 207.5q0 119-73.5 199T719 725H360V154z"/><glyph unicode="Э" horiz-adv-x="1385" d="m186 459 2 6h189q0-154 89-242.5T720 134q164 0 262.5 132.5T1081 597v81H507v155h574v25q0 198-98.5 331.5T720 1323q-165 0-254-89t-89-244H188l-2 6q-5 203 143.5 342.5T720 1478q247 0 403-175.5T1279 858V599q0-270-156-444.5T720-20 327 110.5 186 459z"/><glyph unicode="Ю" horiz-adv-x="1825" d="M190 0v1456h198V786h205v71q0 266 159.5 443t414.5 177q264 0 429.5-176.5T1762 857V598q0-267-165.5-443T1167-21q-255 0-414.5 176T593 598v34H388V0H190zm600 598q0-202 102.5-330T1167 140q183 0 290.5 127.5T1565 598v261q0 200-108 328t-290 128q-172 0-274.5-128T790 859V598z"/><glyph unicode="Я" horiz-adv-x="1211" d="m44 0 342 661q-142 51-215.5 146T97 1038q0 199 137 308.5T612 1456h466V0H881v609H558L253 0H44zm250 1040q0-123 81.5-199T610 765h271v536H612q-156 0-237-69.5T294 1040z"/><glyph unicode="а" horiz-adv-x="1126" d="M106 304q0 155 125.5 242.5T572 634h214v107q0 95-58 150.5T564 947q-96 0-155-48t-59-115l-187-2-2 6v13q1 110 111 203 118 98 303 98 184 0 296-93.5T983 739V218q0-58 6-112t22-106H808q-10 49-15.5 86.5T786 162Q731 84 642.5 31.5T452-21q-169 0-257.5 86.5T106 304zm197-4q0-72 45-114t133-42q107 0 193 55t112 126v176H565q-119 0-190.5-60T303 300z"/><glyph unicode="б" horiz-adv-x="1133" d="M97 529v35q0 6 1 13v235q0 308 123.5 453.5T585 1424q138 7 213 34.5t75 94.5h151l2-6q5-158-105-221.5T602 1258q-152-4-244-84t-89-237l3-5q59 75 151 122.5t196 47.5q207 0 327-155t120-396v-22q0-242-130-396T582-21 227.5 133.5 97 529zm198 0q0-172 72-284t215-112q141 0 214 112t73 284v22q0 170-73.5 283T580 947q-141 0-213-113t-72-283v-22z"/><glyph unicode="в" d="M144 0v1082h427q214 0 332-74.5T1021 784q0-76-46-135.5T845 558q101-25 157.5-93.5T1059 308q0-152-110.5-230T640 0H144zm197 152h299q109 0 165 41.5T861 313q0 77-56 119t-165 42H341V152zm0 473h231q125 0 188.5 37T824 774q0 77-64 116t-189 39H341V625z"/><glyph unicode="г" horiz-adv-x="849" d="M143 0v1082h688V926H340V0H143z"/><glyph unicode="д" horiz-adv-x="1297" d="M69 154h106q78 0 113.5 128.5T340 675l26 407h718V154h143v-512h-197V0H266v-358H69v512zm375 0h443v753H552l-14-232q-12-191-32.5-315.5T444 154z"/><glyph unicode="е" horiz-adv-x="1072" d="M97 520v44q0 233 134.5 385.5T560 1102q217 0 325.5-135T994 608V504H302l-3-5q0-163 72-264.5T591 133q100 0 175.5 28.5T896 240l77-128q-58-56-153-94.5T591-21q-233 0-363.5 149T97 520zm210 144 2-5h488v16q0 118-58 195t-179 77q-103 0-170.5-79.5T307 664z"/><glyph unicode="ж" horiz-adv-x="1473" d="m26 0 404 572-370 510h238l286-446h53v446h197V636h54l287 446h237l-370-510L1446 0h-248L892 469h-58V0H637v469h-58L274 0H26z"/><glyph unicode="з" horiz-adv-x="1103" d="m106 314 2 6h186q0-76 72-132t185-56q117 0 186 50t69 123q0 86-61 126.5T563 472H355v160h208q115 0 169.5 40T787 786q0 67-60.5 114.5T551 948q-102 0-171-49t-69-119H125l-2 6q-6 139 119 226.5t309 87.5q200 0 316.5-81.5T984 786q0-73-48.5-134T801 556q98-32 150.5-96t52.5-155q0-151-126-237.5T551-19q-185 0-318 85.5T106 314z"/><glyph unicode="и" d="M143 0v1082h196V314l6-2 478 770h197V0H823v768l-6 2L339 0H143z"/><glyph unicode="й" d="M143 0v1082h196V314l6-2 478 770h197V0H823v768l-6 2L339 0H143zm144 1521 2 6h151q0-66 34-107t108-41q72 0 107 41.5t35 106.5h151l2-6q4-116-77-189t-218-73q-138 0-219 73t-76 189z"/><glyph unicode="к" horiz-adv-x="1120" d="M153 0v1082h197V625h84l387 457h231l2-5-449-514L1088 5l-2-5H844L451 459H350V0H153z"/><glyph unicode="л" horiz-adv-x="1133" d="m26 0 4 168 41 1q105 0 146.5 102.5T259 620v462h761V0H823v926H457V620q0-320-85-470T82 0H26z"/><glyph unicode="м" horiz-adv-x="1528" d="M153 0v1082h254l352-824h6l354 824h246V0h-197v751l-6 2L830 0H694L356 770l-6-2V0H153z"/><glyph unicode="н" d="M143 0v1082h197V614h482v468h197V0H822v460H340V0H143z"/><glyph unicode="о" d="M97 529v22q0 240 130 395.5T580 1102q225 0 355.5-155T1066 551v-22q0-242-130-396T582-21 227.5 133.5 97 529zm197 0q0-172 72.5-284T582 133q141 0 214 112t73 284v22q0 170-73.5 283T580 947q-141 0-213.5-113T294 551v-22z"/><glyph unicode="п" d="M143 0v1082h877V0H823v926H340V0H143z"/><glyph unicode="р" d="M143-416v1498h151l31-140q53 78 132 119t184 41q201 0 312.5-159.5T1065 521v-21q0-234-112-377.5T644-21q-100 0-175.5 33.5T340 113v-529H143zm197 691q37-67 97-104.5T584 133q140 0 212 102.5T868 500v21q0 184-72.5 302.5T582 942q-85 0-145-38.5T340 798V275z"/><glyph unicode="с" horiz-adv-x="1072" d="M97 520v42q0 229 124.5 384.5T573 1102q181 0 296.5-112T981 715l-2-6H800q0 99-64.5 168.5T573 947q-145 0-211.5-112.5T295 562v-42q0-163 65.5-275T573 133q91 0 159 60.5T800 342h178l3-6q4-140-120-248.5T573-21q-228 0-352 155T97 520z"/><glyph unicode="т" horiz-adv-x="1048" d="M71 929v153h906V929H620V0H423v929H71z"/><glyph unicode="у" horiz-adv-x="1030" d="M26 1082h220l228-681 35-136h6l266 817h219L545-166q-41-109-117.5-190T221-437q-24 0-61 5.5T103-421l20 155q-6 1 35.5-2t52.5-3q63 0 103 56t67 124l47 113z"/><glyph unicode="ф" horiz-adv-x="1826" d="M98 500v21q0 261 111.5 421T522 1102q88 0 159-27.5T805 994v566h197V978q55 61 130.5 92.5T1304 1102q200 0 311.5-159.5T1727 521v-21q0-234-112-377.5T1306-21q-97 0-173 30t-131 88v-513H805V87Q751 33 680.5 6T520-21q-198 0-310 143.5T98 500zm197 0q0-164 67.5-265.5T570 133q81 0 138.5 36T805 270v546q-39 61-96.5 96T572 947q-141 0-209-119.5T295 521v-21zm707-225q37-67 97-104.5t147-37.5q140 0 212 102t72 265v21q0 185-72.5 305.5T1244 947q-85 0-145-39.5T1002 800V275z"/><glyph unicode="х" horiz-adv-x="1030" d="m46 0 361 547-351 535h227l227-399 230 399h230L619 547 980 0H754L514 409 274 0H46z"/><glyph unicode="ц" horiz-adv-x="1218" d="M143 0v1082h197V154h483v928h197V154h132v-508H955V0H143z"/><glyph unicode="ч" horiz-adv-x="1131" d="M127 765v318h197V765q0-130 56-191t166-61q66 0 126 7.5T791 543v539h197V0H791v387q-57-15-117-22.5T546 357q-196 0-307.5 103T127 765z"/><glyph unicode="ш" horiz-adv-x="1645" d="M143 0v1082h197V154h381v928h197V154h381v928h197V0H143z"/><glyph unicode="щ" horiz-adv-x="1732" d="M143 0v1082h197V154h381v928h197V154h381v928h197V145h176v-483h-195V0H143z"/><glyph unicode="ъ" horiz-adv-x="1274" d="M45 927v155h503V670h269q192 0 298.5-92T1222 339q0-148-107.5-243.5T817 0H351v927H45zm503-773h269q106 0 156.5 51t50.5 127q0 74-51 129t-156 55H548V154z"/><glyph unicode="ы" horiz-adv-x="1617" d="M173 0v1082h197V670h269q192 0 298.5-92T1044 339q0-148-107.5-243.5T639 0H173zm197 154h269q106 0 156.5 51T846 332q0 74-51 129t-156 55H370V154zM1235 0v1082h197V0h-197z"/><glyph unicode="ь" horiz-adv-x="1113" d="M153 0v1082h197V670h269q192 0 298.5-92T1024 339q0-148-107.5-243.5T619 0H153zm197 154h269q106 0 156.5 51T826 332q0 74-51 129t-156 55H350V154z"/><glyph unicode="э" horiz-adv-x="1102" d="m104 365 2 6h179q0-99 67.5-168.5T520 133q126 0 195 98t77 238l-3 5H404v154h383l2 5q-10 131-78.5 222.5T520 947q-92 0-163.5-61T285 738H107l-2 6q-6 139 121.5 248.5T520 1102q220 0 347.5-156.5T995 562v-42q0-228-128-384.5T520-21Q337-21 218 90.5T104 365z"/><glyph unicode="ю" horiz-adv-x="1671" d="M153 0v1082h197V625h256q20 212 147.5 344.5T1086 1102q225 0 355.5-155T1572 551v-22q0-242-130-396T1088-21q-210 0-338.5 136.5T605 471H350V0H153zm647 529q0-172 72.5-284T1088 133q141 0 214 112t73 284v22q0 170-73.5 283T1086 947q-141 0-213.5-113T800 551v-22z"/><glyph unicode="я" horiz-adv-x="1163" d="m78 0 274 449q-103 37-158.5 117T138 751q0 146 110.5 238.5T553 1082h457V0H813v420H546L290 0H78zm258 749q0-72 49-123t147-51h281v354H553q-107 0-162-53.5T336 749z"/><glyph unicode="ѐ" horiz-adv-x="1072" d="M97 520v44q0 233 134.5 385.5T560 1102q217 0 325.5-135T994 608V504H302l-3-5q0-163 72-264.5T591 133q100 0 175.5 28.5T896 240l77-128q-58-56-153-94.5T591-21q-233 0-363.5 149T97 520zm210 144 2-5h488v16q0 118-58 195t-179 77q-103 0-170.5-79.5T307 664zm-93 876 3 6h230l175-266H464z"/><glyph unicode="ё" horiz-adv-x="1072" d="M97 520v44q0 233 134.5 385.5T560 1102q217 0 325.5-135T994 608V504H302l-3-5q0-163 72-264.5T591 133q100 0 175.5 28.5T896 240l77-128q-58-56-153-94.5T591-21q-233 0-363.5 149T97 520zm210 144 2-5h488v16q0 118-58 195t-179 77q-103 0-170.5-79.5T307 664zm-112 620v200h219v-200H195zm470 0v200h219v-200H665z"/><glyph unicode="ђ" d="M-14 1228v124h157v208h197v-208h236v-124H340V937q56 78 137.5 121.5T658 1102q173 0 269.5-104t96.5-320V456h1V-89q0-167-86-257.5T699-437q-33 0-59 4t-54 13l15 151q13-5 47-9t51-4q60 0 94 51.5T827-89v769q0 134-57.5 198T598 942q-88 0-153-34.5T340 811V0H143v1228H-14z"/><glyph unicode="ѓ" horiz-adv-x="849" d="M143 0v1082h688V926H340V0H143zm189 1254 185 266h230l2-6-269-260H332z"/><glyph unicode="є" horiz-adv-x="1103" d="M97 520v42q0 229 124.5 384.5T573 1102q181 0 296.5-112T981 715l-2-6H800q0 99-64.5 168.5T573 947q-132 0-198.5-94T302 622l2-5h386V463H304l-2-5q5-139 71-232t200-93q91 0 159 60.5T800 342h178l3-6q4-140-120-248.5T573-21q-228 0-352 155T97 520z"/><glyph unicode="ѕ" horiz-adv-x="1071" d="m109 329 2 6h188q5-105 78-153.5T548 133q105 0 164.5 44.5T772 291q0 65-49.5 106T535 469q-191 41-293.5 115T139 782q0 132 112.5 226t291.5 94q184 0 298-100 109-96 109-222v-11l-2-6H760q0 70-61.5 127T543 947q-104 0-155.5-47T336 788q0-64 44.5-99T564 625q199-42 302-119t103-201q0-144-116.5-235T548-21Q341-21 222 84 109 184 109 316v13z"/><glyph unicode="і" horiz-adv-x="516" d="M159 0v1082h197V0H159zm0 1359v201h197v-201H159z"/><glyph unicode="ї" horiz-adv-x="515" d="M153 0v1082h197V0H153zM-91 1262v200h219v-200H-91zm470 0v200h219v-200H379z"/><glyph unicode="ј" horiz-adv-x="530" d="m-66-419 14 155q14-5 40-8.5t43-3.5q65 0 103.5 44T173-89v1171h197V-89q0-167-86-257.5T45-437q-31 0-56.5 4.5T-66-419zm233 1782v197h197v-197H167z"/><glyph unicode="љ" horiz-adv-x="1782" d="m65 0 4 158 41 1q106 0 152 109t46 352v462h712V671h269q191 0 298-92.5T1694 339q0-148-107.5-243.5T1289 0H823v926H505V620q0-318-89-469T121 0H65zm955 152h269q105 0 156 56t51 133q0 73-50.5 124.5T1289 517h-269V152z"/><glyph unicode="њ" horiz-adv-x="1781" d="M143 0v1082h197V674h482v408h197V670h269q192 0 298.5-92T1693 339q0-148-107.5-243.5T1288 0H822v521H340V0H143zm876 152h269q105 0 156 56t51 133q0 73-50.5 124.5T1288 517h-269V152z"/><glyph unicode="ћ" d="M19 1211v155h124v194h197v-194h320v-155H340V937q56 78 137.5 121.5T658 1102q173 0 269.5-104t96.5-320V0H827v680q0 134-57.5 198T598 942q-88 0-153-34.5T340 811V0H143v1211H19z"/><glyph unicode="ќ" horiz-adv-x="1120" d="M153 0v1082h197V625h84l387 457h231l2-5-449-514L1088 5l-2-5H844L451 459H350V0H153zm296 1253 185 266h230l2-6-269-260H449z"/><glyph unicode="ѝ" d="M143 0v1082h196V314l6-2 478 770h197V0H823v768l-6 2L339 0H143zm113 1518 3 6h230l175-266H506z"/><glyph unicode="ў" horiz-adv-x="1030" d="M26 1082h220l228-681 35-136h6l266 817h219L545-166q-41-109-117.5-190T221-437q-24 0-61 5.5T103-421l20 155q-6 1 35.5-2t52.5-3q63 0 103 56t67 124l47 113zm194 439 2 6h151q0-66 34-107t108-41q72 0 107 41.5t35 106.5h151l2-6q4-116-77-189t-218-73q-138 0-219 73t-76 189z"/><glyph unicode="џ" d="M143 0v1082h197V154h483v928h197V0H683v-356H486V0H143z"/><glyph unicode="Ѡ" horiz-adv-x="1934" d="M120 578v300q0 264 136.5 431.5T609 1477q66 0 127-11.5t115-31.5l-58-156q-37 21-83.5 32.5T609 1322q-131 0-211.5-125T317 880V578q0-193 86-319t219-126q103 0 163.5 32t91.5 77v332H679v154h594V574h-198V242q28-44 89-76.5t166-32.5q131 0 218 126t87 319v302q0 192-81 317t-211 125q-55 0-101-11.5t-83-32.5l-58 156q53 20 114 31.5t128 11.5q215 0 352-167.5T1832 878V578q0-265-142-432T1330-21q-115 0-203.5 29T976 85Q913 37 824.5 8T622-21q-219 0-360.5 167T120 578z"/><glyph unicode="ѡ" horiz-adv-x="1410" d="M46 1082h202l256-763 17-76h6l19 76 133 393-116 370h201l196-763 26-113 6-1 11 34q90 140 125 372t24 471h201q3-310-74-579T1054 0H905L762 451h-6L598 0H449z"/><glyph unicode="Ѣ" horiz-adv-x="1290" d="M-51 1101v155h214v200h197v-200h230v-155H360V880h359q233 0 362.5-119.5T1211 444q0-198-130-321T719 0H163v1101H-51zm411-947h359q147 0 221 84.5t74 207.5q0 119-73.5 199T719 725H360V154z"/><glyph unicode="ѣ" horiz-adv-x="1113" d="M-37 1078v155h190v329h197v-329h321v-155H350V670h269q192 0 298.5-92T1024 339q0-148-107.5-243.5T619 0H153v1078H-37zm387-924h269q106 0 156.5 51T826 332q0 74-51 129t-156 55H350V154z"/><glyph unicode="Ѥ" horiz-adv-x="1837" d="M191 0v1456h198V793h196v65q0 269 155.5 444.5T1143 1478t393-131.5T1678 998l-2-6h-189q0 153-90 242t-254 89q-165 0-263-133t-98-330v-67h479V639H782v-40q0-199 98-332t263-133q164 0 254 88.5t90 244.5h189l2-6q4-205-144-343T1143-20q-247 0-402.5 175T585 599v40H389V0H191z"/><glyph unicode="ѥ" horiz-adv-x="1530" d="M151 0v1082h197V616h177q15 210 138 348t336 138q181 0 296.5-112T1407 715l-2-6h-179q0 99-64.5 168.5T999 947q-133 0-199.5-94.5T728 621l2-5h319V461H730l-2-5q6-139 72-231t199-92q91 0 159 60.5t68 148.5h178l3-6q4-140-120-248.5T999-21q-213 0-336 136T525 461H348V0H151z"/><glyph unicode="Ѧ" horiz-adv-x="1235" d="m43 0 525 1456h169L1251 0h-201L901 438H740V0H544v438H396L244 0H43zm410 602h392l-191 563h-6z"/><glyph unicode="ѧ" horiz-adv-x="1097" d="m13 0 440 1082h169L1065 0H864L745 294H639V0H443v294H330L214 0H13zm378 449h292L557 761l-18 68h-6l-18-68z"/><glyph unicode="Ѩ" horiz-adv-x="1805" d="M209 0v1456h198V603h382l308 853h169L1780 0h-201l-149 438h-161V0h-196v438H925L773 0H572l158 439H407V0H209zm773 602h392l-191 563h-6z"/><glyph unicode="ѩ" horiz-adv-x="1549" d="M186 0v1082h197V449h259l258 633h169L1512 0h-201l-119 294h-106V0H890v294H777L661 0H460l119 293H383V0H186zm652 449h292l-126 312-18 68h-6l-18-68z"/><glyph unicode="Ѫ" horiz-adv-x="1759" d="M149 0v371q0 234 123.5 338.5T636 814h37l-391 642h226l5-9 6 2v7h972l-391-642h22q239 0 364-104.5T1611 371V0h-197v371q0 162-69.5 225T1122 659h-116l-25-42V0H784v632l-17 27H636q-153 0-221.5-63T346 371V0H149zm449 1301 284-487h10l284 487H598z"/><glyph unicode="ѫ" horiz-adv-x="1516" d="M149 0v162q0 226 106 330t311 111l-284 479h158v1h683v-1h123L961 603q198-10 302-115t104-326V0h-198v162q0 163-59.5 225.5T918 450h-47l-11-19V0H663v440l-6 10h-60q-133 0-192-62.5T346 162V0H149zm439 927 176-320 176 320H588z"/><glyph unicode="Ѭ" horiz-adv-x="2326" d="M190 0v1456h198V0H190zm171 660v154h915V660H361zM716 0v371q0 234 123.5 338.5T1203 814h37l-391 642h226l5-9 6 2v7h972l-391-642h22q239 0 364-104.5T2178 371V0h-197v371q0 162-69.5 225T1689 659h-116l-25-42V0h-197v632l-17 27h-131q-153 0-221.5-63T913 371V0H716zm449 1301 284-487h10l284 487h-578z"/><glyph unicode="ѭ" horiz-adv-x="2019" d="M153 0v1082h197V0H153zm106 450v155h1013V450H259zM655 0v162q0 226 106 330t311 111l-284 479h158v1h683v-1h123l-285-479q198-10 302-115t104-326V0h-198v162q0 163-59.5 225.5T1424 450h-47l-11-19V0h-197v440l-6 10h-60q-133 0-192-62.5T852 162V0H655zm439 927 176-320 176 320h-352z"/><glyph unicode="Ѯ" horiz-adv-x="1061" d="M74-122Q74 7 163.5 71T414 135h42q129 0 203.5 74.5T734 403q0 133-82 200t-240 67H269v155h143q154 0 227 63.5t73 177.5q0 102-71.5 168.5T432 1301H128v155h304q211 0 344.5-106.5T910 1062q0-103-65-185T665 751q129-41 198-129t69-215q0-200-132.5-313.5T456-20h-50q-76 0-110.5-29.5T261-132q0-70 46.5-112.5T420-317l-79-127q-111 47-188.5 129T74-122zm148 2008v20h166l147-148 147 148h170v-18l-257-245H476z"/><glyph unicode="ѯ" horiz-adv-x="986" d="M73-122Q73 7 162.5 71T413 135h41q110 0 173.5 45.5T691 300q0 82-71.5 122.5T410 463H267v155h143q133 0 196 41.5T669 776q0 65-61.5 107.5T430 926H127v156h303q192 0 314.5-84T867 772q0-73-51.5-132.5T673 545q105-33 160.5-94T889 304q0-151-121.5-237.5T454-20h-49q-76 0-110.5-29.5T260-132q0-70 47-113t113-72l-80-127q-111 47-188.5 129T73-122zm77 1664v20h166l147-148 147 148h170v-18l-257-245H404z"/><glyph unicode="Ѱ" horiz-adv-x="1416" d="M87 885v571h196V885q0-170 82-275t218-125l6 1v970h198V485l6-2q144 19 230.5 124.5T1110 885v571h197V885q0-245-143-393.5T787 319V0H589v320q-227 24-364.5 172T87 885z"/><glyph unicode="ѱ" horiz-adv-x="1440" d="M91 596v486h197V594q0-207 84.5-316.5T601 149l6 2v930h198V149l6-2q177 23 263 143.5t86 276.5q-3 125-36 253.5t-89 261.5h207q51-106 83-234t32-281q0-240-133-401T805-17v-457H607v459Q360 10 225.5 161T91 596z"/><glyph unicode="Ѳ" horiz-adv-x="1396" d="M113 598v259q0 266 159.5 443T687 1477q264 0 429.5-176.5T1282 857V598q0-267-165.5-443T687-21q-255 0-414.5 176T113 598zm197 0q0-202 102.5-330T687 140q183 0 290.5 127.5T1085 598v20q-37-27-82-41.5T908 562q-109 0-227.5 66.5T482 695q-55 0-101-23.5T310 613v-15zm0 193q36 28 79.5 44t92.5 16q87 0 216-67t210-67q55 0 102.5 20.5T1085 791v68q0 200-108 328t-290 128q-172 0-274.5-128T310 859v-68z"/><glyph unicode="ѳ" horiz-adv-x="1165" d="M97 529v22q0 240 130 395.5T580 1102q225 0 355.5-155T1066 551v-22q0-242-130-396T582-21 227.5 133.5 97 529zm202-87q16-139 87.5-224T582 133q131 0 202 96.5T859 474l-3 4q-21-26-58.5-41.5T717 421q-76 0-159.5 45.5T418 512q-38 0-71.5-20T299 442zm3 155 4-5q20 23 55 38.5t76 15.5q62 0 153-45t147-45q43 0 80 25t46 63q-19 135-90.5 219T580 947q-134 0-205-100.5T302 597z"/><glyph unicode="Ѵ" horiz-adv-x="1295" d="M22 1456h214L601 382l32-120h6l33 120 224 805q47 148 125 218.5t173 70.5q33 0 58.5-5.5t50.5-20.5l-22-151q-6 2-16.5 4.5t-23.5 2.5q-52 0-87-32.5t-61-110.5L720 0H552z"/><glyph unicode="ѵ" horiz-adv-x="1031" d="M46 1082h202l235-763 17-76h6l19 76 149 535q41 127 107 187t148 60q34 0 59.5-5t49.5-20l-22-151q-5 3-16 5.5t-24 2.5q-32 0-61.5-26T872 839L576 0H427z"/><glyph unicode="Ѷ" horiz-adv-x="1295" d="M22 1456h214L601 382l32-120h6l33 120 224 805q47 148 125 218.5t173 70.5q33 0 58.5-5.5t50.5-20.5l-22-151q-6 2-16.5 4.5t-23.5 2.5q-52 0-87-32.5t-61-110.5L720 0H552zm78 402 3 6h229l241-261-2-5H400zm344 1 2 5h212l184-266H685z"/><glyph unicode="ѷ" horiz-adv-x="1031" d="M46 1082h202l235-763 17-76h6l19 76 149 535q41 127 107 187t148 60q34 0 59.5-5t49.5-20l-22-151q-5 3-16 5.5t-24 2.5q-32 0-61.5-26T872 839L576 0H427zm-48 480 3 6h229l241-261-2-5H298zm344 1 2 5h212l184-266H583z"/><glyph unicode="Ѹ" horiz-adv-x="2426" d="M113 598v259q0 266 159.5 443T687 1477q264 0 429.5-176.5T1282 857V598q0-267-165.5-443T687-21q-255 0-414.5 176T113 598zm197 0q0-202 102.5-330T687 140q183 0 290.5 127.5T1085 598v261q0 200-108 328t-290 128q-172 0-274.5-128T310 859V598zm1112 484h220l228-681 35-136h6l266 817h219L1941-166q-41-109-117.5-190T1617-437q-24 0-61 5.5t-57 10.5l20 155q-6 1 35.5-2t52.5-3q63 0 103 56t67 124l47 113z"/><glyph unicode="ѹ" horiz-adv-x="2194" d="M97 529v22q0 240 130 395.5T580 1102q225 0 355.5-155T1066 551v-22q0-242-130-396T582-21 227.5 133.5 97 529zm197 0q0-172 72.5-284T582 133q141 0 214 112t73 284v22q0 170-73.5 283T580 947q-141 0-213.5-113T294 551v-22zm896 553h220l228-681 35-136h6l266 817h219L1709-166q-41-109-117.5-190T1385-437q-24 0-61 5.5t-57 10.5l20 155q-6 1 35.5-2t52.5-3q63 0 103 56t67 124l47 113z"/><glyph unicode="Ѻ" horiz-adv-x="1396" d="M113 598v259q0 266 159.5 443T687 1477q264 0 429.5-176.5T1282 857V598q0-267-165.5-443T687-21q-255 0-414.5 176T113 598zm197 0q0-202 102.5-330T687 140q183 0 290.5 127.5T1085 598v261q0 200-108 328t-290 128q-172 0-274.5-128T310 859V598zm290-739v398h197v-398H600zm0 1341v389h197v-389H600z"/><glyph unicode="ѻ" d="M97 529v22q0 240 130 395.5T580 1102q225 0 355.5-155T1066 551v-22q0-242-130-396T582-21 227.5 133.5 97 529zm197 0q0-172 72.5-284T582 133q141 0 214 112t73 284v22q0 170-73.5 283T580 947q-141 0-213.5-113T294 551v-22zm190-647v369h197v-369H484zm0 954v370h197V836H484z"/><glyph unicode="Ѽ" horiz-adv-x="1934" d="M120 578v300q0 264 136.5 431.5T609 1477q66 0 126.5-11.5T850 1434l-58-156q-37 21-83.5 32.5T609 1322q-131 0-211.5-125T317 880V578q0-193 86-319t219-126q105 0 165.5 33t90.5 78v33h197v-33q29-45 89.5-78t166.5-33q131 0 218 126t87 319v302q0 192-81 317t-211 125q-54 0-100.5-11.5T1161 1278l-58 156q53 20 113.5 31.5T1344 1477q215 0 352-167.5T1833 878V578q0-265-142-432T1331-21q-115 0-203.5 29T976 85Q912 37 824 8T622-21q-219 0-360.5 167T120 578zm587 1197v37q0 108 62 162.5t176 54.5q72 0 218-61.5t260-61.5h44v-130h-46q-131 0-280.5 62T949 1900q-51 0-79.5-27t-28.5-80v-18H707zm195-242 58 116-1 140h188v-123l-165-199z"/><glyph unicode="ѽ" horiz-adv-x="1654" d="M120 497v63q0 236 114.5 386.5T529 1097q56 0 106.5-11t94.5-31l-58-156q-30 20-66 31.5T529 942q-96 0-154-106.5T317 562v-65q0-157 63.5-260.5T542 133q81 0 125.5 32t70.5 79v33h197v-33q23-46 68.5-78.5T1130 133q97 0 161 103.5t64 260.5v65q0 167-58.5 273.5T1144 942q-42 0-78-11.5t-66-31.5l-58 156q43 20 94 31t108 11q178 0 293-150.5T1552 560v-63q0-229-119.5-373.5T1130-21q-94 0-167.5 30.5T836 91Q782 40 708.5 9.5T542-21q-184 0-303 144.5T120 497zm447 929v36q0 108 62 163t176 55q72 0 218-62t260-62h44v-129h-46q-131 0-280.5 61.5T809 1550q-50 0-79-27t-29-79v-18H567zm195-242 58 115-1 140h188v-123l-165-198z"/><glyph unicode="Ѿ" horiz-adv-x="1934" d="M120 578q0-265 141.5-432T622-21q114 0 202.5 29T976 85q62-48 150.5-77T1330-21q218 0 360 167t142 432v300q0 264-137 431.5T1343 1477q-67 0-128-11.5t-114-31.5l58-156q37 21 83 32.5t101 11.5q130 0 211-125t81-317V578q0-193-87-319t-218-126q-105 0-166 32.5t-89 76.5v332h198v154H679V574h198V242q-31-45-91.5-77T622 133q-133 0-219 126t-86 319v302q0 192 80.5 317T609 1322q54 0 100.5-11.5T793 1278l58 156q-54 20-115 31.5T609 1477q-216 0-352.5-167.5T120 878V578zm424 985 1 234h821v-235h-176v126h-154v-126H858v126H719v-126z"/><glyph unicode="ѿ" horiz-adv-x="1410" d="M46 1082 449 0h149l158 451h6L905 0h149q148 234 225 503t74 579h-201q11-239-24-471t-125-372l-11-34-6 1-26 113-196 763H563l116-370-133-393-19-76h-6l-17 76-256 763H46zm262 144 1 235h822v-236H954v127H801v-127H622v127H484v-127z"/><glyph unicode="Ҁ" horiz-adv-x="1336" d="M118 598v259q0 269 155.5 444.5T676 1477t393-131.5T1211 997l-2-6h-189q0 153-90 242t-254 89q-165 0-263-133t-98-330V598q0-199 98-332t263-133h115v-516H595v368Q380 14 249 183T118 598z"/><glyph unicode="ҁ" horiz-adv-x="1099" d="M98 520v42q0 227 127.5 383.5T573 1102q182 0 301-112t115-275l-2-6H809q0 98-68.5 168T573 947q-138 0-208-115t-70-270v-42q0-159 69.5-273T573 133h106v-516H482v370Q301 19 199.5 168T98 520z"/><glyph unicode="҂" horiz-adv-x="1282" d="m112 569 71 124 293-171 202 364-290 171 73 126 291-171 185 330h171L879 935l293-171-75-124-288 170-205-363 289-172-71-125-291 170L350 0H176l225 398z"/><glyph unicode="҃" horiz-adv-x="1165" d="m212 1189 1 235h544l-1 108 175-1v-217H387v-126z"/><glyph unicode="҄" horiz-adv-x="1209" d="M251 1303v130h44q113 0 259 62t219 62q113 0 175.5-55t62.5-163v-36H877v18q0 52-29.5 79t-78.5 27q-43 0-192.5-62T297 1303h-46z"/><glyph unicode="҅" horiz-adv-x="787" d="M256 1500v123h187l-1-140 59-116-81-66z"/><glyph unicode="҆" horiz-adv-x="847" d="m300 1367 58 116-1 140h188v-123l-165-199z"/><glyph unicode="҈" horiz-adv-x="2076" d="M64 493q-5 78 51.5 130T268 675t152.5-51.5T473 493l-2-6H367q0 44-24 72.5T268 588q-50 0-73.5-29T171 487H66zM230-26q-5 78 51.5 130T434 156t153-51.5T640-26l-2-6H533q0 44-24 72.5T434 69q-50 0-73-29t-23-72H232zm10 1022q-5 79 51.5 130.5T445 1178q96 0 152.5-51.5T650 996l-2-6H544q0 43-24.5 72t-74.5 29-73.5-29-23.5-72H242zm573 277q-5 79 51 130.5t153 51.5q96 0 152.5-51.5T1222 1273l-2-6h-104q0 43-24.5 72t-74.5 29-73.5-29-23.5-72H815zm5-1583q-5 80 51 131t153 51q96 0 152.5-51t52.5-131l-2-6h-104q0 44-24.5 72.5T1022-215t-73.5-28.5T925-316H820zm576 284q-5 78 51.5 130t152.5 52 152.5-51.5T1803-26l-2-6h-104q0 44-24 72.5T1598 69q-50 0-73.5-29T1501-32h-105zm10 1022q-5 78 51.5 130t152.5 52 153-51.5 53-130.5l-2-6h-105q0 44-24 72.5t-75 28.5q-50 0-73-29t-23-72h-106zm187-503q-5 78 51.5 130t152.5 52 152.5-51.5T2000 493l-2-6h-104q0 44-24 72.5t-75 28.5q-50 0-73.5-29t-23.5-72h-105z"/><glyph unicode="҉" horiz-adv-x="2008" d="M77 545v98l346-71V433l-13-12zM272-80l294 200 97-99-2-17-320-153zm86 1268 65 69 198-299-98-98-17 2zM897-413l70 353h137l11-14-122-339h-96zm0 1553 122 338h96l-70-352H909zm450-138 2 16 321 153 68-68q-37-23-294-200zm41-940 97 99 17-2 149-325-66-71zm199 430v139l13 12 333-124v-98z"/><glyph unicode="Ҋ" horiz-adv-x="1440" d="M173 0v1456h197V347l6-2 701 1111h197V0h-197v1110l-6 2L370 0H173zm259 1864 2 6h151q0-66 34-107t108-41q72 0 107 41.5t35 106.5h151l2-6q4-116-77-189t-218-73q-138 0-219 73t-76 189zm739-2161 70 316v163h197V9l-150-306h-117z"/><glyph unicode="ҋ" d="M143 0v1082h196V314l6-2 478 770h197V0H823v768l-6 2L339 0H143zm144 1521 2 6h151q0-66 34-107t108-41q72 0 107 41.5t35 106.5h151l2-6q4-116-77-189t-218-73q-138 0-219 73t-76 189zM917-297l70 316v163h197V9l-150-306H917z"/><glyph unicode="Ҍ" horiz-adv-x="1290" d="M-51 1101v155h214v200h197v-200h230v-155H360V880h359q233 0 362.5-119.5T1211 444q0-198-130-321T719 0H163v1101H-51zm411-947h359q147 0 221 84.5t74 207.5q0 119-73.5 199T719 725H360V154z"/><glyph unicode="ҍ" horiz-adv-x="1113" d="M-70 799v155h223v128h197V954h221V799H350V670h269q192 0 298.5-92T1024 339q0-148-107.5-243.5T619 0H153v799H-70zm420-645h269q106 0 156.5 51T826 332q0 74-51 129t-156 55H350V154z"/><glyph unicode="Ҏ" horiz-adv-x="1293" d="M163 0v1456h557q233 0 362.5-120t129.5-316q0-198-129.5-317T720 584H360V0H163zm197 738h360q148 0 221 79.5t73 200.5-73.5 202-220.5 81H360V738zm312 142 140 71 254-489-140-70z"/><glyph unicode="ҏ" horiz-adv-x="1163" d="M143-416v1498h151l31-140q53 78 132 119t184 41q201 0 312.5-159.5T1065 521v-21q0-234-112-377.5T644-21q-100 0-175.5 33.5T340 113v-529H143zm197 691q37-67 97-104.5T584 133q140 0 212 102.5T868 500v21q0 184-72.5 302.5T582 942q-85 0-145-38.5T340 798V275zm231 7 148 55 174-473-147-55z"/><glyph unicode="Ґ" horiz-adv-x="1124" d="M163 0v1456h700v334h197v-490H863v1H360V0H163z"/><glyph unicode="ґ" horiz-adv-x="915" d="M143 0v1082h496v315h197V926H340V0H143z"/><glyph unicode="Ғ" horiz-adv-x="1123" d="M-21 681v155h184v620h893v-155H360V836h260V681H360V0H163v681H-21z"/><glyph unicode="ғ" horiz-adv-x="849" d="M-13 476v155h156v451h688V926H340V631h288V476H340V0H143v476H-13z"/><glyph unicode="Ҕ" horiz-adv-x="1238" d="M163 0v1456h893v-155H360V875h249q235 0 383-128t148-348q-2-138-99.5-279T753-55L702 93q128 34 184 112.5T942 399q-1 147-92 229t-241 82H360V0H163z"/><glyph unicode="ҕ" horiz-adv-x="1032" d="M143 0v1082h688V926H340V673h93q235 0 383-128t148-348q-2-138-99.5-279T577-257l-51 148Q654-74 710 4t56 193q-1 147-92 229t-241 82h-93V0H143z"/><glyph unicode="Җ" horiz-adv-x="1687" d="m26 0 495 770-455 686h230l388-633h65v633h196V823h57l388 633h230l-455-685L1660 0h-245L999 668h-54V0H749v668h-63L271 0H26zm1508 157h197v-516h-197v516z"/><glyph unicode="җ" horiz-adv-x="1473" d="m26 0 404 572-370 510h238l286-446h53v446h197V636h54l287 446h237l-370-510L1446 0h-248L892 469h-58V0H637v469h-58L274 0H26zm1259 157h197v-516h-197v516z"/><glyph unicode="Ҙ" horiz-adv-x="1385" d="m125 398 2 6h188q0-114 99-192.5T670 133q178 0 279 74.5T1050 402q0 133-92 197.5T686 664H503v156h183q174 0 258 66t84 180q0 112-90.5 184T670 1322q-141 0-237.5-71T336 1075H148l-1 6q-6 176 146.5 286T670 1477q257 0 406-108t149-307q0-101-68-184.5T969 747q135-42 206.5-129t71.5-212q0-201-159.5-314T670-21Q444-21 282 86T125 398zm324-776 33 123q30-11 57.5-18.5T601-281q61 0 88 24t27 66q0 49-35 92.5T587-9l91 67Q783 6 835-65.5T887-213q0-99-66.5-154T652-422q-68 0-116 12.5T449-378z"/><glyph unicode="ҙ" horiz-adv-x="1103" d="m106 314 2 6h186q0-76 72-132t185-56q117 0 186 50t69 123q0 86-61 126.5T563 472H355v160h208q115 0 169.5 40T787 786q0 67-60.5 114.5T551 948q-102 0-171-49t-69-119H125l-2 6q-6 139 119 226.5t309 87.5q200 0 316.5-81.5T984 786q0-73-48.5-134T801 556q98-32 150.5-96t52.5-155q0-151-126-237.5T551-19q-185 0-318 85.5T106 314zm211-691 33 123q30-11 57.5-18.5T469-280q61 0 88 24t27 66q0 49-35 92.5T455-8l91 67Q651 7 703-64.5T755-212q0-99-66.5-154T520-421q-68 0-116 12.5T317-377z"/><glyph unicode="Қ" horiz-adv-x="1302" d="M170 0v1456h197V812h108l540 644h222l2-5-590-689L1281 5l-2-5h-239L495 658H367V0H170zm978 157h197v-516h-197v516z"/><glyph unicode="қ" horiz-adv-x="1120" d="M153 0v1082h197V625h84l387 457h231l2-5-449-514L1088 5l-2-5H844L451 459H350V0H153zm788 157h197v-516H941v516z"/><glyph unicode="Ҝ" horiz-adv-x="1295" d="M163 0v1456h197V812h98v255h157V812h76l317 644h229L839 767 1279 0h-246L693 658h-78V415H458v243h-98V0H163z"/><glyph unicode="ҝ" horiz-adv-x="1128" d="M153 0v1082h197V625h75v211h157V625h15l255 457h236L749 570 1123 0H874L605 459h-23V268H425v191h-75V0H153z"/><glyph unicode="Ҟ" horiz-adv-x="1302" d="M-41 1154v155h211v147h197v-147h233v-155H367V812h108l540 644h222l2-5-590-689L1281 5l-2-5h-239L495 658H367V0H170v1154H-41z"/><glyph unicode="ҟ" horiz-adv-x="1050" d="M-69 1214v155h213v191h197v-191h231v-155H341V656h99l325 426h236L608 583 1035 0H802L442 499H341V0H144v1214H-69z"/><glyph unicode="Ҡ" horiz-adv-x="1747" d="M74 1301v155h732V812h108l540 644h222l2-5-590-689L1720 5l-2-5h-239L934 658H806V0H609v1301H74z"/><glyph unicode="ҡ" horiz-adv-x="1478" d="M50 926v156h680V625h84l387 457h231l2-5-449-514L1468 5l-2-5h-242L831 459H730V0H533v926H50z"/><glyph unicode="Ң" horiz-adv-x="1441" d="M170 0v1456h197V798h707v658h197V0h-197v643H367V0H170zm1049 157h197v-516h-197v516z"/><glyph unicode="ң" d="M143 0v1082h197V614h482v468h197V0H822v460H340V0H143zm824 157h197v-516H967v516z"/><glyph unicode="Ҥ" horiz-adv-x="1977" d="M169 0v1456h197V798h707v658h830v-155h-633V0h-197v643H366V0H169z"/><glyph unicode="ҥ" horiz-adv-x="1456" d="M143 0v1082h197V614h482v468h559V926h-362V0H822v460H340V0H143z"/><glyph unicode="Ҧ" horiz-adv-x="2086" d="M168 0v1456h1103V881h217q235 0 383-128.5T2019 404q-2-138-99-278.5T1632-50l-51 149q128 33 184.5 112t56.5 193q-2 147-93 229.5T1488 716h-217V0h-197v1301H365V0H168z"/><glyph unicode="ҧ" horiz-adv-x="1788" d="M143 0v1082h877V676h169q235 0 383-128t148-348q-2-138-99.5-279T1333-254l-51 148q128 35 184 113t56 193q-1 147-92 229t-241 82h-169V0H823v926H340V0H143z"/><glyph unicode="Ҩ" horiz-adv-x="1396" d="M113 597v262q0 265 159 440.5T681 1471l6-2v-154q-172 0-274.5-128.5T310 861V597q0-201 102.5-329T687 140q63 0 117.5 17t99.5 51q-168 42-265.5 162.5T541 657v59q0 176 103 291.5T912 1123t267.5-114.5T1282 716v-80q0-283-165.5-470T687-21q-254 0-414 176T113 597zm625 58q0-122 75.5-205.5T1023 352q30 59 46 131.5t16 152.5v83q0 107-46.5 175T912 962t-127-69-47-174v-64z"/><glyph unicode="ҩ" d="M97 493v54q0 239 136.5 396T585 1096l6-2V941q-136 0-216.5-109.5T294 549v-56q0-155 80-254t217-99q29 0 56.5 6t52.5 18q-109 35-171.5 122T466 489v37q0 132 84.5 219T765 832q129 0 215-93.5t86-233.5v-33q0-211-136-352T591-21q-219 0-356.5 146T97 493zm566-6q0-82 45.5-132.5T834 304q16 36 25.5 79t9.5 89v36q0 67-31 115t-73 48q-44 0-73-41t-29-102v-41z"/><glyph unicode="Ҫ" horiz-adv-x="1297" d="M118 598v259q0 269 155.5 444.5T676 1477q247 1 393-131 142-128 142-337v-12l-2-6h-189q0 153-90 242t-254 89q-165 0-263-133t-98-330V598q0-199 98-332t263-133q164 0 254 88.5t90 244.5h189l2-6v-11q0-198-144-332Q919-21 676-21q-247 0-402.5 175T118 598zm326-976 33 123q30-11 57.5-18.5T596-281q61 0 88 24t27 66q0 49-35 92.5T582-9l91 67Q778 6 830-65.5T882-213q0-99-66.5-154T647-422q-68 0-116 12.5T444-378z"/><glyph unicode="ҫ" horiz-adv-x="1072" d="M97 520v42q0 229 124.5 384.5T573 1102q181 0 297-112 112-108 111-264v-11l-2-6H800q0 99-64.5 168.5T573 947q-145 0-211.5-112.5T295 562v-42q0-163 65.5-275T573 133q91 0 159 60.5T800 342h178l3-6v-9q0-135-120-239Q737-20 573-21q-228 0-352 155T97 520zm216-898 33 123q30-11 57.5-18.5T465-281q61 0 88 24t27 66q0 49-35 92.5T451-9l91 67Q647 6 699-65.5T751-213q0-99-66.5-154T516-422q-68 0-116 12.5T313-378z"/><glyph unicode="Ҭ" horiz-adv-x="1225" d="M37 1301v155h1151v-155H708V0H511v1301H37zM656 157h197v-516H656v516z"/><glyph unicode="ҭ" horiz-adv-x="1048" d="M71 929v153h906V929H620V0H423v929H71zm497-772h197v-516H568v516z"/><glyph unicode="Ү" horiz-adv-x="1295" d="M40 1456h225l380-740 380 740h225L739 512V0H543v527z"/><glyph unicode="ү" horiz-adv-x="1031" d="M46 1082h202l256-763 17-76h6l19 76 249 763h201L621 62v-479H424V67z"/><glyph unicode="Ұ" horiz-adv-x="1295" d="M40 1456h225l380-740 380 740h225L831 682h120V527H747l-8-15V0H543v527H310v155h149z"/><glyph unicode="ұ" horiz-adv-x="1031" d="M46 1082h202l256-763 17-76h6l19 76 249 763h201L650 142h199V-13H621v-404H424v404H208v155h188z"/><glyph unicode="Ҳ" horiz-adv-x="1295" d="m66 0 472 734-462 722h236l338-568 340 568h238L766 734 1238 0h-235L654 578 304 0H66zm1001 157h197v-516h-197v516z"/><glyph unicode="ҳ" horiz-adv-x="1030" d="m46 0 361 547-351 535h227l227-399 230 399h230L619 547 980 0H754L514 409 274 0H46zm792 157h197v-516H838v516z"/><glyph unicode="Ҵ" horiz-adv-x="1847" d="M55 1299v155h365v2h197v-2h392v-155H617V155h709v1301h197V161h169v-516h-197V0H420v1299H55z"/><glyph unicode="ҵ" horiz-adv-x="1427" d="M32 928v155h708V928H497V154h483v928h197V154h132v-508h-197V0H300v928H32z"/><glyph unicode="Ҷ" horiz-adv-x="1397" d="M147 996v460h198V996q0-165 69-228.5T636 704q104 0 200 14t195 41v697h197V0h-197v603q-95-29-184-42t-211-13q-241 0-365 105.5T147 996zm1029-839h197v-516h-197v516z"/><glyph unicode="ҷ" horiz-adv-x="1131" d="M127 765v318h197V765q0-130 56-191t166-61q66 0 126 7.5T791 543v539h197V0H791v387q-57-15-117-22.5T546 357q-196 0-307.5 103T127 765zm809-608h197v-516H936v516z"/><glyph unicode="Ҹ" horiz-adv-x="1398" d="M147 996v460h198V996q0-165 69-228.5T636 704q104 0 200 14t195 41v697h197V0h-197v603q-95-29-184-42t-211-13q-241 0-365 105.5T147 996zm493-680v701h158V316H640z"/><glyph unicode="ҹ" horiz-adv-x="1132" d="M127 765v318h197V765q0-130 56-191t166-61q66 0 126 7.5T791 543v539h197V0H791v387q-57-15-117-22.5T546 357q-196 0-307.5 103T127 765zm362-536v566h158V229H489z"/><glyph unicode="Һ" horiz-adv-x="1398" d="M138 0v1456h197V853q96 27 184.5 41T730 908q240 0 364.5-106T1219 460V0h-198v460q0 164-69.5 228T730 752q-105 0-201-14.5T335 696V0H138z"/><glyph unicode="һ" horiz-adv-x="1132" d="M1009.01 319.047V1.067H812.022v317.98q0 129.992-55.996 190.988-55.997 60.996-165.99 60.996-65.996 0-125.992-7.499-59.996-7.5-118.993-22.499V2.066H148.064v1081.93H345.05V697.02q56.997 15 116.993 22.5 59.996 7.498 127.992 7.498 195.988 0 307.48-102.993 111.494-102.994 111.494-304.98z"/><glyph unicode="Ҽ" horiz-adv-x="1739" d="m81 1077 2 5h151q0-93 41.5-155.5T402 846q27 279 195.5 454T999 1475q283 0 432-177.5T1580 809V701H602l-2-5q-5-249 118.5-407T1095 131q107 0 184 23t152 61l48-139q-50-36-146-67.5T1095-23q-330 0-513.5 198.5T398 701v6q-158 20-239.5 118T81 1077zm522-236 3-5h777v31q0 206-90.5 329.5T999 1320q-171 0-276-135T603 841z"/><glyph unicode="ҽ" horiz-adv-x="1215" d="M-33 867h157q0-69 22.5-118t70.5-74q31 190 158 308.5T671 1102q217 0 325.5-135T1105 608V504H413l-3-5q0-163 72-264.5T702 133q100 0 175.5 28.5T1007 240l77-128q-58-56-153-94.5T702-21q-233 0-363.5 149T208 520v8Q89 557 28 644.5T-33 867zm451-203 2-5h488v16q0 118-58 195t-179 77q-103 0-170.5-79.5T418 664z"/><glyph unicode="Ҿ" horiz-adv-x="1739" d="m81 1077 2 5h151q0-93 41.5-155.5T402 846q27 279 195.5 454T999 1475q283 0 432-177.5T1580 809V701H602l-2-5q-5-249 118.5-407T1095 131q107 0 184 23t152 61l48-139q-50-36-146-67.5T1095-23q-330 0-513.5 198.5T398 701v6q-158 20-239.5 118T81 1077zm522-236 3-5h777v31q0 206-90.5 329.5T999 1320q-171 0-276-135T603 841zm67-1064q0 80 60.5 152T918 57l72-57q-70-52-109.5-99.5T841-201q0-42 22.5-66t73.5-24q27 0 50 7.5t49 18.5l33-123q-36-19-79.5-31.5T886-432q-95 0-155.5 55T670-223z"/><glyph unicode="ҿ" horiz-adv-x="1215" d="M-33 867h157q0-69 22.5-118t70.5-74q31 190 158 308.5T671 1102q217 0 325.5-135T1105 608V504H413l-3-5q0-163 72-264.5T702 133q100 0 175.5 28.5T1007 240l77-128q-58-56-153-94.5T702-21q-233 0-363.5 149T208 520v8Q89 557 28 644.5T-33 867zm451-203 2-5h488v16q0 118-58 195t-179 77q-103 0-170.5-79.5T418 664zm-10-887q0 80 60.5 152T656 57l72-57q-70-52-109.5-99.5T579-201q0-42 22.5-66t73.5-24q27 0 50 7.5t49 18.5l33-123q-36-19-79.5-31.5T624-432q-95 0-155.5 55T408-223z"/><glyph unicode="Ӏ" horiz-adv-x="579" d="M190 0v1456h198V0H190z"/><glyph unicode="Ӂ" horiz-adv-x="1687" d="m26 0 495 770-455 686h230l388-633h65v633h196V823h57l388 633h230l-455-685L1660 0h-245L999 668h-54V0H749v668h-63L271 0H26zm524 1864 2 6h151q0-66 34-107t108-41q72 0 107 41.5t35 106.5h151l2-6q4-116-77-189t-218-73q-138 0-219 73t-76 189z"/><glyph unicode="ӂ" horiz-adv-x="1473" d="m26 0 404 572-370 510h238l286-446h53v446h197V636h54l287 446h237l-370-510L1446 0h-248L892 469h-58V0H637v469h-58L274 0H26zm416 1521 2 6h151q0-66 34-107t108-41q72 0 107 41.5t35 106.5h151l2-6q4-116-77-189t-218-73q-138 0-219 73t-76 189z"/><glyph unicode="Ӄ" horiz-adv-x="1295" d="M163 0v1456h197V812h128l520 644h222l3-5-526-640q232-5 372.5-130T1220 324q-2-144-114.5-291.5T772-152L721-2q160 34 231 119t71 207q-2 165-91 244.5T689 648H360V0H163z"/><glyph unicode="ӄ" horiz-adv-x="1120" d="M153 0v1082h197V625h84l387 457h231l2-5-405-464q184-30 291.5-141T1048 176q-2-133-99-266.5T662-258l-51 150Q739-76 795.5-3.5T852 176q-2 144-91 213.5T518 459H350V0H153z"/><glyph unicode="Ӆ" horiz-adv-x="1439" d="M49 0v154h41q138 0 199 142.5T351 770l1 686h919V0h-197v1301H548l-1-531q0-400-103-585T102 0H49zm1119-297 70 316v163h197V9l-150-306h-117z"/><glyph unicode="ӆ" horiz-adv-x="1133" d="m26 0 4 168 41 1q105 0 146.5 102.5T259 620v462h761V0H823v926H457V620q0-320-85-470T82 0H26zm891-297 70 316v163h197V9l-150-306H917z"/><glyph unicode="Ӈ" horiz-adv-x="1439" d="M169 0v1456h197V798h707v658h197V-89q0-167-86.5-257.5T944-437q-31 0-57.5 4.5T832-419l14 150q14-5 47.5-9t50.5-4q60 0 94.5 51.5T1073-89v732H366V0H169z"/><glyph unicode="ӈ" d="M143 0v1082h197V614h482v468h197V-89q0-167-86.5-257.5T693-437q-31 0-57.5 4.5T581-419l15 150q13-5 46.5-9t50.5-4q60 0 94.5 51.5T822-89v549H340V0H143z"/><glyph unicode="Ӊ" horiz-adv-x="1441" d="M170 0v1456h197V798h707v658h197V0h-197v643H367V0H170zm998-297 70 316v163h197V9l-150-306h-117z"/><glyph unicode="ӊ" d="M143 0v1082h197V614h482v468h197V0H822v460H340V0H143zm773-297 70 316v163h197V9l-150-306H916z"/><glyph unicode="Ӌ" horiz-adv-x="1397" d="M147 996v460h198V996q0-165 69-228.5T636 704q104 0 200 14t195 41v697h197V0h-197v603q-95-29-184-42t-211-13q-241 0-365 105.5T147 996zm738-839h197v-516H885v516z"/><glyph unicode="ӌ" horiz-adv-x="1131" d="M127 765v318h197V765q0-130 56-191t166-61q66 0 126 7.5T791 543v539h197V0H791v387q-57-15-117-22.5T546 357q-196 0-307.5 103T127 765zm517-608h197v-516H644v516z"/><glyph unicode="Ӎ" horiz-adv-x="1779" d="M170 0v1456h259L892 273h6l465 1183h245V0h-197v1091l-6 1L964 0H827L373 1128l-6-1V0H170zm1335-297 70 316v163h197V9l-150-306h-117z"/><glyph unicode="ӎ" horiz-adv-x="1528" d="M153 0v1082h254l352-824h6l354 824h246V0h-197v751l-6 2L830 0H694L356 770l-6-2V0H153zm1109-297 70 316v163h197V9l-150-306h-117z"/><glyph unicode="ӏ" horiz-adv-x="579" d="M190 0v1456h198V0H190z"/><glyph unicode="Ӑ" horiz-adv-x="1295" d="m43 0 525 1456h169L1251 0h-201L922 375H374L244 0H43zm388 540h435l-212 625h-6zm-77 1324 2 6h151q0-66 34-107t108-41q72 0 107 41.5t35 106.5h151l2-6q4-116-77-189t-218-73q-138 0-219 73t-76 189z"/><glyph unicode="ӑ" horiz-adv-x="1126" d="M106 304q0 155 125.5 242.5T572 634h214v107q0 95-58 150.5T564 947q-96 0-155-48t-59-115l-187-2-2 6v13q1 110 111 203 118 98 303 98 184 0 296-93.5T983 739V218q0-58 6-112t22-106H808q-10 49-15.5 86.5T786 162Q731 84 642.5 31.5T452-21q-169 0-257.5 86.5T106 304zm197-4q0-72 45-114t133-42q107 0 193 55t112 126v176H565q-119 0-190.5-60T303 300zm-42 1242 2 6h151q0-66 34-107t108-41q72 0 107 41.5t35 106.5h151l2-6q4-116-77-189t-218-73q-138 0-219 73t-76 189z"/><glyph unicode="Ӓ" horiz-adv-x="1295" d="m43 0 525 1456h169L1251 0h-201L922 375H374L244 0H43zm388 540h435l-212 625h-6zM304 1605v200h219v-200H304zm470 0v200h219v-200H774z"/><glyph unicode="ӓ" horiz-adv-x="1126" d="M106 304q0 155 125.5 242.5T572 634h214v107q0 95-58 150.5T564 947q-96 0-155-48t-59-115l-187-2-2 6v13q1 110 111 203 118 98 303 98 184 0 296-93.5T983 739V218q0-58 6-112t22-106H808q-10 49-15.5 86.5T786 162Q731 84 642.5 31.5T452-21q-169 0-257.5 86.5T106 304zm197-4q0-72 45-114t133-42q107 0 193 55t112 126v176H565q-119 0-190.5-60T303 300zm-92 983v200h219v-200H211zm470 0v200h219v-200H681z"/><glyph unicode="Ӕ" horiz-adv-x="1999" d="m14 0 881 1456h967v-155h-691l20-466h590V680h-584l22-526h705V0h-895l-15 350H457L256 0H14zm546 529h447l-31 710-5 2z"/><glyph unicode="ӕ" horiz-adv-x="1789" d="M88 304q0 157 115 243t335 86h229v87q0 106-52 166.5T566 947q-103 0-164-55t-61-133l-188 18-2 6q-5 138 110 228.5t305 90.5q114 0 201.5-40.5T905 944q64 75 151.5 116.5T1245 1102q214 0 329.5-130T1690 614V495H981l-2-5q1-159 79.5-258t233.5-99q103 0 169.5 27.5T1606 239l67-138q-53-44-147-83t-234-39q-136 0-240 48.5T882 166Q826 87 714.5 33T443-21q-170 0-262.5 87T88 304zm197-4q0-74 50-120.5T482 133q76 0 159 43.5T767 277v214H540q-120 0-187.5-55.5T285 300zm698 345 2-5h508v31q0 122-60 199t-188 77q-113 0-182-84.5T983 645z"/><glyph unicode="Ӗ" horiz-adv-x="1130" d="M170 0v1456h886v-155H367V830h598V675H367V154h700V0H170zm155 1864 2 6h151q0-66 34-107t108-41q72 0 107 41.5t35 106.5h151l2-6q4-116-77-189t-218-73q-138 0-219 73t-76 189z"/><glyph unicode="ӗ" horiz-adv-x="1072" d="M97 520v44q0 233 134.5 385.5T560 1102q217 0 325.5-135T994 608V504H302l-3-5q0-163 72-264.5T591 133q100 0 175.5 28.5T896 240l77-128q-58-56-153-94.5T591-21q-233 0-363.5 149T97 520zm210 144 2-5h488v16q0 118-58 195t-179 77q-103 0-170.5-79.5T307 664zm-62 879 2 6h151q0-66 34-107t108-41q72 0 107 41.5t35 106.5h151l2-6q4-116-77-189t-218-73q-138 0-219 73t-76 189z"/><glyph unicode="Ә" horiz-adv-x="1425" d="M89 644v108h1020l2 5q4 248-120.5 406.5T614 1322q-108 0-184.5-23.5T279 1238l-49 139q50 35 145.5 67.5T614 1477q330 0 514.5-199.5T1313 752v-49q0-316-175-520T711-21q-304 0-463 176.5T89 644zm197-58q0-207 99.5-330T711 133q170 0 275 134.5T1108 612l-3 5H286v-31z"/><glyph unicode="ә" horiz-adv-x="1090" d="M1026.01 562.031v-43.997q0-232.985-134.492-385.477-134.491-152.49-328.479-152.49-216.986 0-325.48 134.99-108.493 134.993-108.493 358.98V578.03h691.958l3 4.999q0 162.99-71.996 264.484-71.995 101.493-219.986 101.493-99.994 0-175.49-28.498t-129.491-78.495l-76.995 127.992q57.996 55.997 152.99 94.494 94.994 38.498 228.986 38.498 232.985 0 363.478-148.991t130.492-391.977zm-209.991-143.99-2 4.999h-487.97v-15.999q0-117.992 57.996-194.988 57.997-76.995 178.99-76.995 102.993 0 170.488 79.495 67.496 79.495 82.495 203.488z"/><glyph unicode="Ӛ" horiz-adv-x="1425" d="M89 644v108h1020l2 5q4 248-120.5 406.5T614 1322q-108 0-184.5-23.5T279 1238l-49 139q50 35 145.5 67.5T614 1477q330 0 514.5-199.5T1313 752v-49q0-316-175-520T711-21q-304 0-463 176.5T89 644zm197-58q0-207 99.5-330T711 133q170 0 275 134.5T1108 612l-3 5H286v-31zm-1 973v200h219v-200H285zm470 0v200h219v-200H755z"/><glyph unicode="ӛ" horiz-adv-x="1090" d="M1026.01 562.031v-43.997q0-232.985-134.492-385.477-134.491-152.49-328.479-152.49-216.986 0-325.48 134.99-108.493 134.993-108.493 358.98V578.03h691.958l3 4.999q0 162.99-71.996 264.484-71.995 101.493-219.986 101.493-99.994 0-175.49-28.498t-129.491-78.495l-76.995 127.992q57.996 55.997 152.99 94.494 94.994 38.498 228.986 38.498 232.985 0 363.478-148.991t130.492-391.977zm-209.991-143.99-2 4.999h-487.97v-15.999q0-117.992 57.996-194.988 57.997-76.995 178.99-76.995 102.993 0 170.488 79.495 67.496 79.495 82.495 203.488zM224 1283v200h219v-200H224zm470 0v200h219v-200H694z"/><glyph unicode="Ӝ" horiz-adv-x="1687" d="m26 0 495 770-455 686h230l388-633h65v633h196V823h57l388 633h230l-455-685L1660 0h-245L999 668h-54V0H749v668h-63L271 0H26zm474 1605v200h219v-200H500zm470 0v200h219v-200H970z"/><glyph unicode="ӝ" horiz-adv-x="1473" d="m26 0 404 572-370 510h238l286-446h53v446h197V636h54l287 446h237l-370-510L1446 0h-248L892 469h-58V0H637v469h-58L274 0H26zm366 1262v200h219v-200H392zm470 0v200h219v-200H862z"/><glyph unicode="Ӟ" horiz-adv-x="1385" d="m125 398 2 6h188q0-114 99-192.5T670 133q178 0 279 74.5T1050 402q0 133-92 197.5T686 664H503v156h183q174 0 258 66t84 180q0 112-90.5 184T670 1322q-141 0-237.5-71T336 1075H148l-1 6q-6 176 146.5 286T670 1477q257 0 406-108t149-307q0-101-68-184.5T969 747q135-42 206.5-129t71.5-212q0-201-159.5-314T670-21Q444-21 282 86T125 398zm214 1228v200h219v-200H339zm470 0v200h219v-200H809z"/><glyph unicode="ӟ" horiz-adv-x="1103" d="m106 314 2 6h186q0-76 72-132t185-56q117 0 186 50t69 123q0 86-61 126.5T563 472H355v160h208q115 0 169.5 40T787 786q0 67-60.5 114.5T551 948q-102 0-171-49t-69-119H125l-2 6q-6 139 119 226.5t309 87.5q200 0 316.5-81.5T984 786q0-73-48.5-134T801 556q98-32 150.5-96t52.5-155q0-151-126-237.5T551-19q-185 0-318 85.5T106 314zm101 968v200h219v-200H207zm470 0v200h219v-200H677z"/><glyph unicode="Ӡ" horiz-adv-x="1194" d="m110 398 2 6h189q0-114 76-192.5T574 133q139 0 218.5 74.5T872 402q0 153-80.5 224.5T551 698H405v154l376 444-2 5H148v155h869l1-120-409-491q219-13 339.5-126.5T1069 406q0-200-137-313.5T574-21Q382-21 243.5 86T110 398z"/><glyph unicode="ӡ" horiz-adv-x="1194" d="m110 23 2 6h189q0-112 76-190.5T574-240q139 0 218.5 74.5T872 27q0 154-81 225t-241 71H403v154l357 444-3 5H148v156h869l1-120-396-493q214-16 330.5-129T1069 31q0-198-137.5-312T574-395q-191 0-330 107.5T110 23z"/><glyph unicode="Ӣ" horiz-adv-x="1440" d="M173 0v1456h197V347l6-2 701 1111h197V0h-197v1110l-6 2L370 0H173zm198 1640v146h721v-146H371z"/><glyph unicode="ӣ" d="M143 0v1082h196V314l6-2 478 770h197V0H823v768l-6 2L339 0H143zm83 1298v146h721v-146H226z"/><glyph unicode="Ӥ" horiz-adv-x="1440" d="M173 0v1456h197V347l6-2 701 1111h197V0h-197v1110l-6 2L370 0H173zm209 1605v200h219v-200H382zm470 0v200h219v-200H852z"/><glyph unicode="ӥ" d="M143 0v1082h196V314l6-2 478 770h197V0H823v768l-6 2L339 0H143zm94 1262v200h219v-200H237zm470 0v200h219v-200H707z"/><glyph unicode="Ӧ" horiz-adv-x="1396" d="M113 598v259q0 266 159.5 443T687 1477q264 0 429.5-176.5T1282 857V598q0-267-165.5-443T687-21q-255 0-414.5 176T113 598zm197 0q0-202 102.5-330T687 140q183 0 290.5 127.5T1085 598v261q0 200-108 328t-290 128q-172 0-274.5-128T310 859V598zm44 1028v200h219v-200H354zm470 0v200h219v-200H824z"/><glyph unicode="ӧ" d="M97 529v22q0 240 130 395.5T580 1102q225 0 355.5-155T1066 551v-22q0-242-130-396T582-21 227.5 133.5 97 529zm197 0q0-172 72.5-284T582 133q141 0 214 112t73 284v22q0 170-73.5 283T580 947q-141 0-213.5-113T294 551v-22zm-56 754v200h219v-200H238zm470 0v200h219v-200H708z"/><glyph unicode="Ө" horiz-adv-x="1396" d="M113 598v259q0 266 159.5 443T687 1477q264 0 429.5-176.5T1282 857V598q0-267-165.5-443T687-21q-255 0-414.5 176T113 598zm197 0q0-202 102.5-330T687 140q183 0 290.5 127.5T1085 598v20q-37-27-82-41.5T908 562q-109 0-227.5 66.5T482 695q-55 0-101-23.5T310 613v-15zm0 193q36 28 79.5 44t92.5 16q87 0 216-67t210-67q55 0 102.5 20.5T1085 791v68q0 200-108 328t-290 128q-172 0-274.5-128T310 859v-68z"/><glyph unicode="ө" horiz-adv-x="1165" d="M97 529v22q0 240 130 395.5T580 1102q225 0 355.5-155T1066 551v-22q0-242-130-396T582-21 227.5 133.5 97 529zm202-87q16-139 87.5-224T582 133q131 0 202 96.5T859 474l-3 4q-21-26-58.5-41.5T717 421q-76 0-159.5 45.5T418 512q-38 0-71.5-20T299 442zm3 155 4-5q20 23 55 38.5t76 15.5q62 0 153-45t147-45q43 0 80 25t46 63q-19 135-90.5 219T580 947q-134 0-205-100.5T302 597z"/><glyph unicode="Ӫ" horiz-adv-x="1396" d="M113 598v259q0 266 159.5 443T687 1477q264 0 429.5-176.5T1282 857V598q0-267-165.5-443T687-21q-255 0-414.5 176T113 598zm197 0q0-202 102.5-330T687 140q183 0 290.5 127.5T1085 598v20q-37-27-82-41.5T908 562q-109 0-227.5 66.5T482 695q-55 0-101-23.5T310 613v-15zm0 193q36 28 79.5 44t92.5 16q87 0 216-67t210-67q55 0 102.5 20.5T1085 791v68q0 200-108 328t-290 128q-172 0-274.5-128T310 859v-68zm66 809v200h219v-200H376zm470 0v200h219v-200H846z"/><glyph unicode="ӫ" horiz-adv-x="1165" d="M97 529v22q0 240 130 395.5T580 1102q225 0 355.5-155T1066 551v-22q0-242-130-396T582-21 227.5 133.5 97 529zm202-87q16-139 87.5-224T582 133q131 0 202 96.5T859 474l-3 4q-21-26-58.5-41.5T717 421q-76 0-159.5 45.5T418 512q-38 0-71.5-20T299 442zm3 155 4-5q20 23 55 38.5t76 15.5q62 0 153-45t147-45q43 0 80 25t46 63q-19 135-90.5 219T580 947q-134 0-205-100.5T302 597zm-87 714v200h219v-200H215zm470 0v200h219v-200H685z"/><glyph unicode="Ӭ" horiz-adv-x="1385" d="m186 459 2 6h189q0-154 89-242.5T720 134q164 0 262.5 132.5T1081 597v81H507v155h574v25q0 198-98.5 331.5T720 1323q-165 0-254-89t-89-244H188l-2 6q-5 203 143.5 342.5T720 1478q247 0 403-175.5T1279 858V599q0-270-156-444.5T720-20 327 110.5 186 459zm162 1168v200h219v-200H348zm470 0v200h219v-200H818z"/><glyph unicode="ӭ" horiz-adv-x="1102" d="m104 365 2 6h179q0-99 67.5-168.5T520 133q126 0 195 98t77 238l-3 5H404v154h383l2 5q-10 131-78.5 222.5T520 947q-92 0-163.5-61T285 738H107l-2 6q-6 139 121.5 248.5T520 1102q220 0 347.5-156.5T995 562v-42q0-228-128-384.5T520-21Q337-21 218 90.5T104 365zm99 918v200h219v-200H203zm470 0v200h219v-200H673z"/><glyph unicode="Ӯ" horiz-adv-x="1297" d="M66 1456h221l281-681 74-191h6l348 872h228L695 239Q639 115 559 47T325-21q-65 0-121.5 11T114 16l25 144q33-10 81-18.5t84-8.5q82 0 131 42.5T514 285l39 83zm225 184v146h721v-146H291z"/><glyph unicode="ӯ" horiz-adv-x="1030" d="M26 1082h220l228-681 35-136h6l266 817h219L545-166q-41-109-117.5-190T221-437q-24 0-61 5.5T103-421l20 155q-6 1 35.5-2t52.5-3q63 0 103 56t67 124l47 113zm133 216v146h721v-146H159z"/><glyph unicode="Ӱ" horiz-adv-x="1297" d="M66 1456h221l281-681 74-191h6l348 872h228L695 239Q639 115 559 47T325-21q-65 0-121.5 11T114 16l25 144q33-10 81-18.5t84-8.5q82 0 131 42.5T514 285l39 83zm236 149v200h219v-200H302zm470 0v200h219v-200H772z"/><glyph unicode="ӱ" horiz-adv-x="1030" d="M26 1082h220l228-681 35-136h6l266 817h219L545-166q-41-109-117.5-190T221-437q-24 0-61 5.5T103-421l20 155q-6 1 35.5-2t52.5-3q63 0 103 56t67 124l47 113zm144 180v200h219v-200H170zm470 0v200h219v-200H640z"/><glyph unicode="Ӳ" horiz-adv-x="1297" d="M66 1456h221l281-681 74-191h6l348 872h228L695 239Q639 115 559 47T325-21q-65 0-121.5 11T114 16l25 144q33-10 81-18.5t84-8.5q82 0 131 42.5T514 285l39 83zm344 145 184 266h211l2-5-240-261H410zm269 5 241 261h229l3-6-300-260H681z"/><glyph unicode="ӳ" horiz-adv-x="1030" d="M26 1082h220l228-681 35-136h6l266 817h219L545-166q-41-109-117.5-190T221-437q-24 0-61 5.5T103-421l20 155q-6 1 35.5-2t52.5-3q63 0 103 56t67 124l47 113zm252 176 184 266h211l2-5-240-261H278zm269 5 241 261h229l3-6-300-260H549z"/><glyph unicode="Ӵ" horiz-adv-x="1397" d="M147 996v460h198V996q0-165 69-228.5T636 704q104 0 200 14t195 41v697h197V0h-197v603q-95-29-184-42t-211-13q-241 0-365 105.5T147 996zm197 609v200h219v-200H344zm470 0v200h219v-200H814z"/><glyph unicode="ӵ" horiz-adv-x="1131" d="M127 765v318h197V765q0-130 56-191t166-61q66 0 126 7.5T791 543v539h197V0H791v387q-57-15-117-22.5T546 357q-196 0-307.5 103T127 765zm81 497v200h219v-200H208zm470 0v200h219v-200H678z"/><glyph unicode="Ӷ" horiz-adv-x="1123" d="M163 0v1456h893v-155H360V0H163zm145 157h197v-516H308v516z"/><glyph unicode="ӷ" horiz-adv-x="849" d="M143 0v1082h688V926H340V0H143zm112 157h197v-516H255v516z"/><glyph unicode="Ӹ" horiz-adv-x="1749" d="M163 0v1456h197V880h359q233 0 362.5-119.5T1211 444q0-198-130-321T719 0H163zm197 154h359q147 0 221 84.5t74 207.5q0 119-73.5 199T719 725H360V154zM1388 0v1456h198V0h-198zM531 1605v200h219v-200H531zm470 0v200h219v-200h-219z"/><glyph unicode="ӹ" horiz-adv-x="1617" d="M173 0v1082h197V670h269q192 0 298.5-92T1044 339q0-148-107.5-243.5T639 0H173zm197 154h269q106 0 156.5 51T846 332q0 74-51 129t-156 55H370V154zM1235 0v1082h197V0h-197zM460 1262v200h219v-200H460zm470 0v200h219v-200H930z"/><glyph unicode="Ӻ" horiz-adv-x="1215" d="M256 0v1456h893v-155H453V0H256zM64 711v155h641V711H64zM196-419l14 160q14-5 46-8.5t51-3.5q60 0 94 47t34 135v243h197V-89q0-167-86-257.5T307-437q-31 0-56.5 4.5T196-419z"/><glyph unicode="ӻ" horiz-adv-x="841" d="M241 0v1082h688V926H438V0H241zM65 536v155h641V536H65zm115-955 14 160q14-5 46-8.5t51-3.5q60 0 94 47t34 135v243h197V-89q0-167-86-257.5T291-437q-31 0-56.5 4.5T180-419z"/><glyph unicode="Ӽ" horiz-adv-x="1295" d="m66 0 472 734-462 722h236l338-568 340 568h238L766 734 1238 0h-235L654 578 304 0H66zm813-419 14 160q14-5 46-8.5t51-3.5q60 0 94 47t34 135v243h197V-89q0-167-86-257.5T990-437q-31 0-56.5 4.5T879-419z"/><glyph unicode="ӽ" horiz-adv-x="1030" d="m46 0 361 547-351 535h227l227-399 230 399h230L619 547 980 0H754L514 409 274 0H46zm604-419 14 160q14-5 46-8.5t51-3.5q60 0 94 47t34 135v243h197V-89q0-167-86-257.5T761-437q-31 0-56.5 4.5T650-419z"/><glyph unicode="Ӿ" horiz-adv-x="1295" d="m66 0 429 667H340v155h141L76 1456h236l338-568 340 568h238L822 822h159V667H809L1238 0h-235L654 578 304 0H66z"/><glyph unicode="ӿ" horiz-adv-x="1030" d="m46 0 315 478H183v155h167L56 1082h227l227-399 230 399h230L675 633h149V478H664L980 0H754L514 409 274 0H46z"/><glyph unicode="Ԁ" horiz-adv-x="1287" d="M91 444q0 197 128.5 316.5T582 880h359v576h197V0H582Q349 0 220 123T91 444zm197 2q0-123 73-207.5T582 154h359v571H582q-148 0-221-80t-73-199z"/><glyph unicode="ԁ" d="M98 500v21q0 261 111.5 421T522 1102q95 0 168.5-35T816 965v595h197V0H862l-30 137Q779 59 701 19T520-21q-198 0-310 143.5T98 500zm197 0q0-164 67-262.5T570 139q88 0 148 40t98 112v505q-38 67-98.5 106.5T572 942q-142 0-209.5-117T295 521v-21z"/><glyph unicode="Ԃ" horiz-adv-x="1700" d="M91 444q0 197 128.5 316.5T582 880h359v576h197V153l83 1q106 1 164 71.5t62 196.5q1 77-14.5 160.5T1387 745h190q33-100 51-175.5t16-147.5q-4-204-125.5-313T1221 0H582Q349 0 220 123T91 444zm197 2q0-123 73-207.5T582 154h359v571H582q-148 0-221-80t-73-199z"/><glyph unicode="ԃ" horiz-adv-x="1765" d="M98 500v21q0 261 111.5 421T522 1102q89 0 159-31t122-90v579h197V345q-2-95 44-153.5t123-58.5q134 1 208 106t78 290q1 97-14.5 198.5T1393 931l190 1q33-122 51-216.5t16-186.5q-4-266-142-408T1167-21q-120-2-201.5 40.5T843 155Q790 68 709.5 23.5T520-21q-198 0-310 143.5T98 500zm197 0q0-164 67-262.5T570 139q84 0 142 36.5T809 278q-3 15-4.5 32t-1.5 35v472q-39 58-96 91.5T572 942q-142 0-209.5-117T295 521v-21z"/><glyph unicode="Ԅ" horiz-adv-x="1623" d="M54 1301v155h359q239 0 365.5-106T905 1043q0-113-58.5-195.5T677 716q118-40 170.5-128T900 372v-68q-1-76 38.5-123.5T1045 133q116 1 180 107t68 289q1 97-14.5 199T1233 932h190q34-134 51-223.5t16-179.5q-4-265-131-407.5T1045-21q-160-3-247 75.5T703 304v66q0 118-68.5 190.5T450 633H259v155h136q166 0 239.5 63t73.5 194q0 121-71.5 188.5T413 1301H54z"/><glyph unicode="ԅ" horiz-adv-x="1324" d="M49 1082h268q206 0 319-85t113-237q0-81-48-138t-141-93q99-28 143.5-89T748 290v-77q-1-42 18.5-64t66.5-22q106 2 164.5 78.5T1060 419q1 76-15 158t-46 161h190q34-102 52-175t16-144q-5-215-126-330T833-26q-138-3-207 54t-75 186v75q0 71-53 110.5T347 439H136l-2 154h184q119 0 175.5 41.5T550 753q0 81-57 128.5T317 929H55z"/><glyph unicode="Ԇ" horiz-adv-x="1099" d="M80 1301v155h274q239 0 365-106t126-309q0-112-58.5-195T617 715q119-40 171.5-128T841 371V235q0-68 15.5-122T909 25V0H706q-41 35-51.5 100.5T644 237v132q0 118-68.5 190.5T391 632H171v154h162q167 0 241.5 63.5T649 1043q0 122-71.5 190T354 1301H80zM710-260l70 316v163h197V46L827-260H710z"/><glyph unicode="ԇ" horiz-adv-x="1033" d="M123 929v153h280q205 0 317.5-84.5T833 760q0-81-48.5-139T642 527q102-29 146.5-95T833 269v-97q0-45 14.5-88T896 19V0H693q-37 23-47 72.5T636 173v95q0 80-53 125.5T432 439H193v154h210q120 0 176 41.5T635 754q0 81-56.5 128T403 929H123zM694-280l70 316v163h197V26L811-280H694z"/><glyph unicode="Ԉ" horiz-adv-x="1986" d="M69 0v154h41q149 0 215.5 144T392 768v688h865V345q-1-95 44.5-153.5T1424 133q135 1 208.5 106t77.5 290q1 97-14.5 198.5T1650 931l190 1q33-122 51-216.5t16-186.5q-4-266-142-408T1424-21q-170-3-263 85.5T1060 345v956H588V768q0-398-108-583T122 0H69z"/><glyph unicode="ԉ" horiz-adv-x="1654" d="m65 0 4 168 41 1q107 0 153 106t46 347v460h701V345q-1-95 44-153.5t121-58.5q107 1 165 94.5t62 257.5q1 92-15 188t-46 193h191q33-120 51-207.5t16-173.5q-4-244-125.5-375T1175-21q-168-3-261 85.5T813 345v581H506V622q0-317-89-469.5T122 0H65z"/><glyph unicode="Ԋ" horiz-adv-x="2051" d="M169 0v1456h197V798h703v658h197V345q-1-95 44-153.5t122-58.5q135 1 209 106t78 290q1 97-15 198t-46 204l190 1q34-124 52-217.5t16-185.5q-5-266-143-408T1432-21q-169-3-262 85.5T1069 345v298H366V0H169z"/><glyph unicode="ԋ" horiz-adv-x="1698" d="M143 0v1082h197V613h492v469h197V345q-1-95 44.5-153.5T1195 133q106 1 164.5 94.5T1422 485q1 91-14.5 187.5T1362 866h189q34-123 52-209t16-172q-4-244-125-375T1195-21q-169-3-262 85.5T832 345v115H340V0H143z"/><glyph unicode="Ԍ" horiz-adv-x="1271" d="M118 597v262q0 267 161.5 442.5T697 1477q113 0 202-22.5t157-65.5l-63-135q-67 33-139 50.5T697 1322q-175 0-278.5-133T315 861V597q0-198 103.5-331T697 133q136 1 210 78t78 214q1 83-12.5 173.5T935 786h190q42-197 50-240t7-121q-4-216-142.5-331T697-21q-256 0-417.5 175T118 597z"/><glyph unicode="ԍ" horiz-adv-x="1054" d="M98 520v42q0 226 127.5 383T572 1102q94 0 165-17.5t118-48.5l-46-147q-47 27-108 42.5T572 947q-137 0-207-115.5T295 562v-42q0-158 74.5-272.5T593 133q95 1 134 42.5T769 301q0 58-5 119t-14 117h189q13-68 20-125.5t7-110.5q-4-158-106-240T593-21q-230 0-362.5 157T98 520z"/><glyph unicode="Ԏ" horiz-adv-x="1454" d="M36 1301v155h1152v-155H705V345q-1-95 44.5-153.5T871 133q135 1 209.5 106t78.5 290q1 96-15 197t-47 205l191 1q34-124 51.5-217.5T1355 529q-4-266-142-408T871-21q-169-3-262 85.5T508 345v956H36z"/><glyph unicode="ԏ" horiz-adv-x="1313" d="M70 929v153h907V929H621V345q-1-95 44-153.5T787 133q106 1 164.5 78.5T1014 426q1 76-15 159.5T954 749h189q34-103 52-177t16-146q-4-216-125.5-331.5T787-21q-169-3-262 85.5T424 345v584H70z"/><glyph unicode="Ԑ" horiz-adv-x="1385" d="M156 406q0 126 71 212.5T433 747q-120 48-187.5 131T178 1062q0 199 149 307t406 108q223 0 376-110t148-286l-1-6h-188q0 105-97.5 176T733 1322q-178 0-268-72t-90-184q0-114 83.5-180T717 820h184V664H717q-181 0-272.5-64.5T353 402q0-120 101-194.5T733 133q156 0 255.5 78.5T1088 404h188l2-6q4-205-158-312T733-21Q475-21 315.5 92.5T156 406z"/><glyph unicode="ԑ" horiz-adv-x="1103" d="M98 305q0 91 51.5 155T300 556q-87 35-135 96t-48 134q0 150 116.5 232t317.5 82q183 0 307.5-87.5T978 786l-2-6H790q0 70-69.5 119T551 948q-116 0-176.5-47.5T314 786q0-74 54.5-116.5T538 627h209V477H538q-121 0-181.5-42.5T296 305q0-73 68.5-123T551 132q112 0 184.5 56T808 320h186l2-6q5-162-128-247.5T551-19q-202 0-327.5 86.5T98 305z"/><glyph unicode="Ԓ" horiz-adv-x="1439" d="M49 0v154h41q138 0 199 142.5T351 770l1 686h919V0h-197v1301H548l-1-531q0-400-103-585T102 0H49zm982-419 14 160q14-5 46-8.5t51-3.5q60 0 94 47t34 135v243h197V-89q0-167-86-257.5T1142-437q-31 0-56.5 4.5T1031-419z"/><glyph unicode="ԓ" horiz-adv-x="1133" d="m26 0 4 168 41 1q105 0 146.5 102.5T259 620v462h761V0H823v926H457V620q0-320-85-470T82 0H26zm754-419 14 160q14-5 46-8.5t51-3.5q60 0 94 47t34 135v243h197V-89q0-167-86-257.5T891-437q-31 0-56.5 4.5T780-419z"/><glyph unicode="Ḁ" horiz-adv-x="1295" d="m43 0 525 1456h169L1251 0h-201L922 375H374L244 0H43zm388 540h435l-212 625h-6zm38-774q0 65 45.5 107.5T626-84q63 0 108-42.5T779-234q0-63-44.5-104T626-379q-66 0-111.5 41T469-234zm89 0q0-26 20-45t48-19q26 0 45 18.5t19 45.5q0 30-19 49.5T626-165q-28 0-48-20t-20-49z"/><glyph unicode="ḁ" horiz-adv-x="1126" d="M106 304q0 155 125.5 242.5T572 634h214v107q0 95-58 150.5T564 947q-96 0-155-48t-59-115l-187-2-2 6v13q1 110 111 203 118 98 303 98 184 0 296-93.5T983 739V218q0-58 6-112t22-106H808q-10 49-15.5 86.5T786 162Q731 84 642.5 31.5T452-21q-169 0-257.5 86.5T106 304zm197-4q0-72 45-114t133-42q107 0 193 55t112 126v176H565q-119 0-190.5-60T303 300zm35-534q0 65 45.5 107.5T495-84q63 0 108-42.5T648-234q0-63-44.5-104T495-379q-66 0-111.5 41T338-234zm89 0q0-26 20-45t48-19q26 0 45 18.5t19 45.5q0 30-19 49.5T495-165q-28 0-48-20t-20-49z"/><glyph unicode="Ḿ" horiz-adv-x="1779" d="M170 0v1456h259L892 273h6l465 1183h245V0h-197v1091l-6 1L964 0H827L373 1128l-6-1V0H170zm630 1597 185 266h230l2-6-269-260H800z"/><glyph unicode="ḿ" horiz-adv-x="1790" d="M143 0v1082h176l14-142q53 77 134.5 119.5T657 1102t185.5-50T959 902q52 93 135.5 146.5T1290 1102q165 0 261-113.5t96-341.5V0h-197v649q0 160-55 226.5T1231 942q-101 0-163.5-70T994 695V0H796v649q0 152-56.5 222.5T577 942q-90 0-148-37t-89-104V0H143zm683 1275 185 266h230l2-6-269-260H826z"/><glyph unicode="Ẁ" horiz-adv-x="1763" d="M37 1456h213l212-951 25-191 6-1 34 192 258 951h193l260-951 34-195h6l27 195 208 951h214L1375 0h-176L908 1010l-22 131h-6l-21-131L564 0H388zm519 405 3 6h230l175-266H806z"/><glyph unicode="ẁ" horiz-adv-x="1550" d="M45 1082h205l170-688 25-139h6l26 139 216 688h158l217-688 28-155h6l32 155 160 688h206L1186 0h-159L813 659l-41 172h-6l-38-172L518 0H359zm403 436 3 6h230l175-266H698z"/><glyph unicode="Ẃ" horiz-adv-x="1763" d="M37 1456h213l212-951 25-191 6-1 34 192 258 951h193l260-951 34-195h6l27 195 208 951h214L1375 0h-176L908 1010l-22 131h-6l-21-131L564 0H388zm754 141 185 266h230l2-6-269-260H791z"/><glyph unicode="ẃ" horiz-adv-x="1550" d="M45 1082h205l170-688 25-139h6l26 139 216 688h158l217-688 28-155h6l32 155 160 688h206L1186 0h-159L813 659l-41 172h-6l-38-172L518 0H359zm638 172 185 266h230l2-6-269-260H683z"/><glyph unicode="Ẅ" horiz-adv-x="1763" d="M37 1456h213l212-951 25-191 6-1 34 192 258 951h193l260-951 34-195h6l27 195 208 951h214L1375 0h-176L908 1010l-22 131h-6l-21-131L564 0H388zm500 149v200h219v-200H537zm470 0v200h219v-200h-219z"/><glyph unicode="ẅ" horiz-adv-x="1550" d="M45 1082h205l170-688 25-139h6l26 139 216 688h158l217-688 28-155h6l32 155 160 688h206L1186 0h-159L813 659l-41 172h-6l-38-172L518 0H359zm384 180v200h219v-200H429zm470 0v200h219v-200H899z"/><glyph unicode="Ạ" horiz-adv-x="1295" d="m43 0 525 1456h169L1251 0h-201L922 375H374L244 0H43zm388 540h435l-212 625h-6zm98-677h218v-200H529v200z"/><glyph unicode="ạ" horiz-adv-x="1126" d="M106 304q0 155 125.5 242.5T572 634h214v107q0 95-58 150.5T564 947q-96 0-155-48t-59-115l-187-2-2 6v13q1 110 111 203 118 98 303 98 184 0 296-93.5T983 739V218q0-58 6-112t22-106H808q-10 49-15.5 86.5T786 162Q731 84 642.5 31.5T452-21q-169 0-257.5 86.5T106 304zm197-4q0-72 45-114t133-42q107 0 193 55t112 126v176H565q-119 0-190.5-60T303 300zm95-437h218v-200H398v200z"/><glyph unicode="Ả" horiz-adv-x="1295" d="m43 0 525 1456h169L1251 0h-201L922 375H374L244 0H43zm388 540h435l-212 625h-6zm131 1344 7 108q147 0 226-51.5t79-137.5q0-70-43-106.5T723 1651l-1-71H582l-1 154q76 4 108.5 20t32.5 53q0 39-43.5 58T562 1884z"/><glyph unicode="ả" horiz-adv-x="1126" d="M106 304q0 155 125.5 242.5T572 634h214v107q0 95-58 150.5T564 947q-96 0-155-48t-59-115l-187-2-2 6v13q1 110 111 203 118 98 303 98 184 0 296-93.5T983 739V218q0-58 6-112t22-106H808q-10 49-15.5 86.5T786 162Q731 84 642.5 31.5T452-21q-169 0-257.5 86.5T106 304zm197-4q0-72 45-114t133-42q107 0 193 55t112 126v176H565q-119 0-190.5-60T303 300zm166 1262 7 108q147 0 226-51.5t79-137.5q0-70-43-106.5T630 1329l-1-71H489l-1 154q76 4 108.5 20t32.5 53q0 39-43.5 58T469 1562z"/><glyph unicode="Ấ" horiz-adv-x="1295" d="m43 0 525 1456h169L1251 0h-201L922 375H374L244 0H43zm388 540h435l-212 625h-6zM274 1603l289 257h158l288-257-2-6H809l-167 157-167-157H276zm666 170 140 260h211l-204-260H940z"/><glyph unicode="ấ" horiz-adv-x="1126" d="M106 304q0 155 125.5 242.5T572 634h214v107q0 95-58 150.5T564 947q-96 0-155-48t-59-115l-187-2-2 6v13q1 110 111 203 118 98 303 98 184 0 296-93.5T983 739V218q0-58 6-112t22-106H808q-10 49-15.5 86.5T786 162Q731 84 642.5 31.5T452-21q-169 0-257.5 86.5T106 304zm197-4q0-72 45-114t133-42q107 0 193 55t112 126v176H565q-119 0-190.5-60T303 300zm-122 981 289 257h158l288-257-2-6H716l-167 157-167-157H183zm666 170 140 260h211l-204-260H847z"/><glyph unicode="Ầ" horiz-adv-x="1295" d="m43 0 525 1456h169L1251 0h-201L922 375H374L244 0H43zm388 540h435l-212 625h-6zM0 2016h210l140-260H203zm281-430 288 257h158l289-257-2-6H815l-167 157-167-157H283z"/><glyph unicode="ầ" horiz-adv-x="1126" d="M106 304q0 155 125.5 242.5T572 634h214v107q0 95-58 150.5T564 947q-96 0-155-48t-59-115l-187-2-2 6v13q1 110 111 203 118 98 303 98 184 0 296-93.5T983 739V218q0-58 6-112t22-106H808q-10 49-15.5 86.5T786 162Q731 84 642.5 31.5T452-21q-169 0-257.5 86.5T106 304zm197-4q0-72 45-114t133-42q107 0 193 55t112 126v176H565q-119 0-190.5-60T303 300zM-93 1694h210l140-260H110zm281-430 288 257h158l289-257-2-6H722l-167 157-167-157H190z"/><glyph unicode="Ẩ" horiz-adv-x="1295" d="m43 0 525 1456h169L1251 0h-201L922 375H374L244 0H43zm388 540h435l-212 625h-6zM273 1566l2-6h169l196 186 196-186h170l2 6-269 257H541zm693 393 6 94q127 0 195.5-43.5T1236 1891q0-61-37.5-93t-94.5-39l-1-61H983l-1 133q66 4 93.5 17t27.5 45q0 34-37.5 50t-99.5 16z"/><glyph unicode="ẩ" horiz-adv-x="1126" d="M106 304q0 155 125.5 242.5T572 634h214v107q0 95-58 150.5T564 947q-96 0-155-48t-59-115l-187-2-2 6v13q1 110 111 203 118 98 303 98 184 0 296-93.5T983 739V218q0-58 6-112t22-106H808q-10 49-15.5 86.5T786 162Q731 84 642.5 31.5T452-21q-169 0-257.5 86.5T106 304zm197-4q0-72 45-114t133-42q107 0 193 55t112 126v176H565q-119 0-190.5-60T303 300zm-123 945 2-6h169l196 186 196-186h170l2 6-269 257H448zm693 393 6 94q127 0 195.5-43.5T1143 1570q0-61-37.5-93t-94.5-39l-1-61H890l-1 133q66 4 93.5 17t27.5 45q0 34-37.5 50t-99.5 16z"/><glyph unicode="Ẫ" horiz-adv-x="1295" d="m43 0 525 1456h169L1251 0h-201L922 375H374L244 0H43zm388 540h435l-212 625h-6zM277 1568l289 257h157l289-257-2-6H840l-196 176-196-176H279zm99 328q0 69 48 124.5t114 55.5q42 0 103.5-34.5T742 2007q30 0 57 28t27 63l79-23q0-69-48.5-122.5T742 1899q-53 0-109.5 35.5T538 1970q-31 0-56.5-29.5T456 1877z"/><glyph unicode="ẫ" horiz-adv-x="1126" d="M106 304q0 155 125.5 242.5T572 634h214v107q0 95-58 150.5T564 947q-96 0-155-48t-59-115l-187-2-2 6v13q1 110 111 203 118 98 303 98 184 0 296-93.5T983 739V218q0-58 6-112t22-106H808q-10 49-15.5 86.5T786 162Q731 84 642.5 31.5T452-21q-169 0-257.5 86.5T106 304zm197-4q0-72 45-114t133-42q107 0 193 55t112 126v176H565q-119 0-190.5-60T303 300zm-119 947 289 257h157l289-257-2-6H747l-196 176-196-176H186zm99 328q0 69 48 124.5t114 55.5q42 0 103.5-34.5T649 1686q30 0 57 28t27 63l79-23q0-69-48.5-122.5T649 1578q-53 0-109.5 35.5T445 1649q-31 0-56.5-29.5T363 1556z"/><glyph unicode="Ậ" horiz-adv-x="1295" d="m43 0 525 1456h169L1251 0h-201L922 375H374L244 0H43zm388 540h435l-212 625h-6zm-89 1061v26l246 237h120l248-238v-25H795l-147 148-146-148H342zM529-137h218v-200H529v200z"/><glyph unicode="ậ" horiz-adv-x="1126" d="M106 304q0 155 125.5 242.5T572 634h214v107q0 95-58 150.5T564 947q-96 0-155-48t-59-115l-187-2-2 6v13q1 110 111 203 118 98 303 98 184 0 296-93.5T983 739V218q0-58 6-112t22-106H808q-10 49-15.5 86.5T786 162Q731 84 642.5 31.5T452-21q-169 0-257.5 86.5T106 304zm197-4q0-72 45-114t133-42q107 0 193 55t112 126v176H565q-119 0-190.5-60T303 300zm-54 979v26l246 237h120l248-238v-25H702l-147 148-146-148H249zM398-137h218v-200H398v200z"/><glyph unicode="Ắ" horiz-adv-x="1295" d="m43 0 525 1456h169L1251 0h-201L922 375H374L244 0H43zm388 540h435l-212 625h-6zm-85 1250 2 6h151q0-51 34.5-82.5T643 1682q73 0 108 31.5t35 82.5h152l2-6q6-89-76-146t-221-57q-140 0-222 57t-75 146zm239 28 108 197h155l2-5-159-192H585z"/><glyph unicode="ắ" horiz-adv-x="1126" d="M106 304q0 155 125.5 242.5T572 634h214v107q0 95-58 150.5T564 947q-96 0-155-48t-59-115l-187-2-2 6v13q1 110 111 203 118 98 303 98 184 0 296-93.5T983 739V218q0-58 6-112t22-106H808q-10 49-15.5 86.5T786 162Q731 84 642.5 31.5T452-21q-169 0-257.5 86.5T106 304zm197-4q0-72 45-114t133-42q107 0 193 55t112 126v176H565q-119 0-190.5-60T303 300zm-50 1168 2 6h151q0-51 34.5-82.5T550 1360q73 0 108 31.5t35 82.5h152l2-6q6-89-76-146t-221-57q-140 0-222 57t-75 146zm239 28 108 197h155l2-5-159-192H492z"/><glyph unicode="Ằ" horiz-adv-x="1295" d="m43 0 525 1456h169L1251 0h-201L922 375H374L244 0H43zm388 540h435l-212 625h-6zM329 1828l2 6h149q0-65 39.5-106t123.5-41q83 0 122.5 41t39.5 106h151l2-6q5-115-82-188t-233-73q-147 0-233.5 73T329 1828zm35 248 2 6h220l143-205H572z"/><glyph unicode="ằ" horiz-adv-x="1126" d="M106 304q0 155 125.5 242.5T572 634h214v107q0 95-58 150.5T564 947q-96 0-155-48t-59-115l-187-2-2 6v13q1 110 111 203 118 98 303 98 184 0 296-93.5T983 739V218q0-58 6-112t22-106H808q-10 49-15.5 86.5T786 162Q731 84 642.5 31.5T452-21q-169 0-257.5 86.5T106 304zm197-4q0-72 45-114t133-42q107 0 193 55t112 126v176H565q-119 0-190.5-60T303 300zm-67 1206 2 6h149q0-65 39.5-106t123.5-41q83 0 122.5 41t39.5 106h151l2-6q5-115-82-188t-233-73q-147 0-233.5 73T236 1506zm35 248 2 6h220l143-205H479z"/><glyph unicode="Ẳ" horiz-adv-x="1295" d="m43 0 525 1456h169L1251 0h-201L922 375H374L244 0H43zm388 540h435l-212 625h-6zm-81 1239q-7-89 72-145.5t214-56.5q134 0 213 56.5t73 145.5l-2 6H775q0-51-34-82.5T636 1671q-72 0-106 32t-34 82H352zm218 301 7 83q142 0 218-39t76-105q0-53-41.5-80.5T723 1904l-1-63H587l-1 126q73 3 103 14.5t25 37.5v6q5 28-35.5 41.5T568 2080z"/><glyph unicode="ẳ" horiz-adv-x="1126" d="M106 304q0 155 125.5 242.5T572 634h214v107q0 95-58 150.5T564 947q-96 0-155-48t-59-115l-187-2-2 6v13q1 110 111 203 118 98 303 98 184 0 296-93.5T983 739V218q0-58 6-112t22-106H808q-10 49-15.5 86.5T786 162Q731 84 642.5 31.5T452-21q-169 0-257.5 86.5T106 304zm197-4q0-72 45-114t133-42q107 0 193 55t112 126v176H565q-119 0-190.5-60T303 300zm-46 1157q-7-89 72-145.5t214-56.5q134 0 213 56.5t73 145.5l-2 6H682q0-51-34-82.5T543 1349q-72 0-106 32t-34 82H259zm218 301 7 83q142 0 218-39t76-105q0-53-41.5-80.5T630 1582l-1-63H494l-1 126q73 3 103 14.5t25 37.5v6q5 28-35.5 41.5T475 1758z"/><glyph unicode="Ẵ" horiz-adv-x="1295" d="m43 0 525 1456h169L1251 0h-201L922 375H374L244 0H43zm388 540h435l-212 625h-6zm-81 1247 2 6h148q0-52 33.5-84.5T641 1676q71 0 105.5 32.5T781 1793h148l2-6q6-91-74-149t-216-58q-137 0-217.5 58T350 1787zm23 100q0 74 47 129.5t120 55.5q45 0 112.5-38t110.5-38q32 0 56 25.5t24 63.5l86-24q0-75-47.5-128.5T763 1879q-58 0-120 38t-103 38q-34 0-56.5-26t-22.5-63z"/><glyph unicode="ẵ" horiz-adv-x="1126" d="M106 304q0 155 125.5 242.5T572 634h214v107q0 95-58 150.5T564 947q-96 0-155-48t-59-115l-187-2-2 6v13q1 110 111 203 118 98 303 98 184 0 296-93.5T983 739V218q0-58 6-112t22-106H808q-10 49-15.5 86.5T786 162Q731 84 642.5 31.5T452-21q-169 0-257.5 86.5T106 304zm197-4q0-72 45-114t133-42q107 0 193 55t112 126v176H565q-119 0-190.5-60T303 300zm-46 1165 2 6h148q0-52 33.5-84.5T548 1354q71 0 105.5 32.5T688 1471h148l2-6q6-91-74-149t-216-58q-137 0-217.5 58T257 1465zm23 100q0 74 47 129.5t120 55.5q45 0 112.5-38t110.5-38q32 0 56 25.5t24 63.5l86-24q0-75-47.5-128.5T670 1557q-58 0-120 38t-103 38q-34 0-56.5-26t-22.5-63z"/><glyph unicode="Ặ" horiz-adv-x="1295" d="m43 0 525 1456h169L1251 0h-201L922 375H374L244 0H43zm388 540h435l-212 625h-6zm-77 1324 2 6h151q0-66 34-107t108-41q72 0 107 41.5t35 106.5h151l2-6q4-116-77-189t-218-73q-138 0-219 73t-76 189zM529-137h218v-200H529v200z"/><glyph unicode="ặ" horiz-adv-x="1126" d="M106 304q0 155 125.5 242.5T572 634h214v107q0 95-58 150.5T564 947q-96 0-155-48t-59-115l-187-2-2 6v13q1 110 111 203 118 98 303 98 184 0 296-93.5T983 739V218q0-58 6-112t22-106H808q-10 49-15.5 86.5T786 162Q731 84 642.5 31.5T452-21q-169 0-257.5 86.5T106 304zm197-4q0-72 45-114t133-42q107 0 193 55t112 126v176H565q-119 0-190.5-60T303 300zm-42 1242 2 6h151q0-66 34-107t108-41q72 0 107 41.5t35 106.5h151l2-6q4-116-77-189t-218-73q-138 0-219 73t-76 189zM398-137h218v-200H398v200z"/><glyph unicode="Ẹ" horiz-adv-x="1130" d="M170 0v1456h886v-155H367V830h598V675H367V154h700V0H170zm340-127h218v-200H510v200z"/><glyph unicode="ẹ" horiz-adv-x="1072" d="M97 520v44q0 233 134.5 385.5T560 1102q217 0 325.5-135T994 608V504H302l-3-5q0-163 72-264.5T591 133q100 0 175.5 28.5T896 240l77-128q-58-56-153-94.5T591-21q-233 0-363.5 149T97 520zm210 144 2-5h488v16q0 118-58 195t-179 77q-103 0-170.5-79.5T307 664zm155-801h218v-200H462v200z"/><glyph unicode="Ẻ" horiz-adv-x="1130" d="M170 0v1456h886v-155H367V830h598V675H367V154h700V0H170zm363 1884 7 108q147 0 226-51.5t79-137.5q0-70-43-106.5T694 1651l-1-71H553l-1 154q76 4 108.5 20t32.5 53q0 39-43.5 58T533 1884z"/><glyph unicode="ẻ" horiz-adv-x="1072" d="M97 520v44q0 233 134.5 385.5T560 1102q217 0 325.5-135T994 608V504H302l-3-5q0-163 72-264.5T591 133q100 0 175.5 28.5T896 240l77-128q-58-56-153-94.5T591-21q-233 0-363.5 149T97 520zm210 144 2-5h488v16q0 118-58 195t-179 77q-103 0-170.5-79.5T307 664zm146 899 7 108q147 0 226-51.5t79-137.5q0-70-43-106.5T614 1330l-1-71H473l-1 154q76 4 108.5 20t32.5 53q0 39-43.5 58T453 1563z"/><glyph unicode="Ẽ" horiz-adv-x="1130" d="M170 0v1456h886v-155H367V830h598V675H367V154h700V0H170zm102 1628q0 93 59 161.5t150 68.5q56 0 140-47t136-47q41 0 71 32.5t30 79.5l108-32q0-94-59.5-159T757 1620q-71 0-148 46.5T481 1713q-43 0-72-32.5t-29-78.5z"/><glyph unicode="ẽ" horiz-adv-x="1072" d="M97 520v44q0 233 134.5 385.5T560 1102q217 0 325.5-135T994 608V504H302l-3-5q0-163 72-264.5T591 133q100 0 175.5 28.5T896 240l77-128q-58-56-153-94.5T591-21q-233 0-363.5 149T97 520zm210 144 2-5h488v16q0 118-58 195t-179 77q-103 0-170.5-79.5T307 664zm-115 643q0 93 59 161.5t150 68.5q56 0 140-47t136-47q41 0 71 32.5t30 79.5l108-32q0-94-59.5-159T677 1299q-71 0-148 46.5T401 1392q-43 0-72-32.5t-29-78.5z"/><glyph unicode="Ế" horiz-adv-x="1130" d="M170 0v1456h886v-155H367V830h598V675H367V154h700V0H170zm75 1603 289 257h158l288-257-2-6H780l-167 157-167-157H247zm666 170 140 260h211l-204-260H911z"/><glyph unicode="ế" horiz-adv-x="1072" d="M97 520v44q0 233 134.5 385.5T560 1102q217 0 325.5-135T994 608V504H302l-3-5q0-163 72-264.5T591 133q100 0 175.5 28.5T896 240l77-128q-58-56-153-94.5T591-21q-233 0-363.5 149T97 520zm210 144 2-5h488v16q0 118-58 195t-179 77q-103 0-170.5-79.5T307 664zm-142 618 289 257h158l288-257-2-6H700l-167 157-167-157H167zm666 170 140 260h211l-204-260H831z"/><glyph unicode="Ề" horiz-adv-x="1130" d="M170 0v1456h886v-155H367V830h598V675H367V154h700V0H170zM-29 2016h210l140-260H174zm281-430 288 257h158l289-257-2-6H786l-167 157-167-157H254z"/><glyph unicode="ề" horiz-adv-x="1072" d="M97 520v44q0 233 134.5 385.5T560 1102q217 0 325.5-135T994 608V504H302l-3-5q0-163 72-264.5T591 133q100 0 175.5 28.5T896 240l77-128q-58-56-153-94.5T591-21q-233 0-363.5 149T97 520zm210 144 2-5h488v16q0 118-58 195t-179 77q-103 0-170.5-79.5T307 664zm-416 1031h210l140-260H94zm281-430 288 257h158l289-257-2-6H706l-167 157-167-157H174z"/><glyph unicode="Ể" horiz-adv-x="1130" d="M170 0v1456h886v-155H367V830h598V675H367V154h700V0H170zm74 1566 2-6h169l196 186 196-186h170l2 6-269 257H512zm693 393 6 94q127 0 195.5-43.5T1207 1891q0-61-37.5-93t-94.5-39l-1-61H954l-1 133q66 4 93.5 17t27.5 45q0 34-37.5 50t-99.5 16z"/><glyph unicode="ể" horiz-adv-x="1072" d="M97 520v44q0 233 134.5 385.5T560 1102q217 0 325.5-135T994 608V504H302l-3-5q0-163 72-264.5T591 133q100 0 175.5 28.5T896 240l77-128q-58-56-153-94.5T591-21q-233 0-363.5 149T97 520zm210 144 2-5h488v16q0 118-58 195t-179 77q-103 0-170.5-79.5T307 664zm-143 582 2-6h169l196 186 196-186h170l2 6-269 257H432zm693 393 6 94q127 0 195.5-43.5T1127 1571q0-61-37.5-93t-94.5-39l-1-61H874l-1 133q66 4 93.5 17t27.5 45q0 34-37.5 50t-99.5 16z"/><glyph unicode="Ễ" horiz-adv-x="1130" d="M170 0v1456h886v-155H367V830h598V675H367V154h700V0H170zm78 1568 289 257h157l289-257-2-6H811l-196 176-196-176H250zm99 328q0 69 48 124.5t114 55.5q42 0 103.5-34.5T713 2007q30 0 57 28t27 63l79-23q0-69-48.5-122.5T713 1899q-53 0-109.5 35.5T509 1970q-31 0-56.5-29.5T427 1877z"/><glyph unicode="ễ" horiz-adv-x="1072" d="M97 520v44q0 233 134.5 385.5T560 1102q217 0 325.5-135T994 608V504H302l-3-5q0-163 72-264.5T591 133q100 0 175.5 28.5T896 240l77-128q-58-56-153-94.5T591-21q-233 0-363.5 149T97 520zm210 144 2-5h488v16q0 118-58 195t-179 77q-103 0-170.5-79.5T307 664zm-139 584 289 257h157l289-257-2-6H731l-196 176-196-176H170zm99 328q0 69 48 124.5t114 55.5q42 0 103.5-34.5T633 1687q30 0 57 28t27 63l79-23q0-69-48.5-122.5T633 1579q-53 0-109.5 35.5T429 1650q-31 0-56.5-29.5T347 1557z"/><glyph unicode="Ệ" horiz-adv-x="1130" d="M170 0v1456h886v-155H367V830h598V675H367V154h700V0H170zm143 1601v26l246 237h120l248-238v-25H766l-147 148-146-148H313zM510-127h218v-200H510v200z"/><glyph unicode="ệ" horiz-adv-x="1072" d="M97 520v44q0 233 134.5 385.5T560 1102q217 0 325.5-135T994 608V504H302l-3-5q0-163 72-264.5T591 133q100 0 175.5 28.5T896 240l77-128q-58-56-153-94.5T591-21q-233 0-363.5 149T97 520zm210 144 2-5h488v16q0 118-58 195t-179 77q-103 0-170.5-79.5T307 664zm-74 616v26l246 237h120l248-238v-25H686l-147 148-146-148H233zM462-137h218v-200H462v200z"/><glyph unicode="Ỉ" horiz-adv-x="579" d="M190 0v1456h198V0H190zm13 1884 7 108q147 0 226-51.5t79-137.5q0-70-43-106.5T364 1651l-1-71H223l-1 154q76 4 108.5 20t32.5 53q0 39-43.5 58T203 1884z"/><glyph unicode="ỉ" horiz-adv-x="515" d="M153 0v1082h197V0H153zm13 1542 7 108q147 0 226-51.5t79-137.5q0-70-43-106.5T327 1309l-1-71H186l-1 154q76 4 108.5 20t32.5 53q0 39-43.5 58T166 1542z"/><glyph unicode="Ị" horiz-adv-x="579" d="M190 0v1456h198V0H190zm-10-128h218v-200H180v200z"/><glyph unicode="ị" horiz-adv-x="516" d="M159 0v1082h197V0H159zm0 1359v201h197v-201H159zM149-127h218v-200H149v200z"/><glyph unicode="Ọ" horiz-adv-x="1396" d="M113 598v259q0 266 159.5 443T687 1477q264 0 429.5-176.5T1282 857V598q0-267-165.5-443T687-21q-255 0-414.5 176T113 598zm197 0q0-202 102.5-330T687 140q183 0 290.5 127.5T1085 598v261q0 200-108 328t-290 128q-172 0-274.5-128T310 859V598zm279-743h218v-200H589v200z"/><glyph unicode="ọ" d="M97 529v22q0 240 130 395.5T580 1102q225 0 355.5-155T1066 551v-22q0-242-130-396T582-21 227.5 133.5 97 529zm197 0q0-172 72.5-284T582 133q141 0 214 112t73 284v22q0 170-73.5 283T580 947q-141 0-213.5-113T294 551v-22zm179-675h218v-200H473v200z"/><glyph unicode="Ỏ" horiz-adv-x="1396" d="M113 598v259q0 266 159.5 443T687 1477q264 0 429.5-176.5T1282 857V598q0-267-165.5-443T687-21q-255 0-414.5 176T113 598zm197 0q0-202 102.5-330T687 140q183 0 290.5 127.5T1085 598v261q0 200-108 328t-290 128q-172 0-274.5-128T310 859V598zm302 1307 7 108q147 0 226-51.5t79-137.5q0-70-43-106.5T773 1672l-1-71H632l-1 154q76 4 108.5 20t32.5 53q0 39-43.5 58T612 1905z"/><glyph unicode="ỏ" d="M97 529v22q0 240 130 395.5T580 1102q225 0 355.5-155T1066 551v-22q0-242-130-396T582-21 227.5 133.5 97 529zm197 0q0-172 72.5-284T582 133q141 0 214 112t73 284v22q0 170-73.5 283T580 947q-141 0-213.5-113T294 551v-22zm202 1033 7 108q147 0 226-51.5t79-137.5q0-70-43-106.5T657 1329l-1-71H516l-1 154q76 4 108.5 20t32.5 53q0 39-43.5 58T496 1562z"/><glyph unicode="Ố" horiz-adv-x="1396" d="M113 598v259q0 266 159.5 443T687 1477q264 0 429.5-176.5T1282 857V598q0-267-165.5-443T687-21q-255 0-414.5 176T113 598zm197 0q0-202 102.5-330T687 140q183 0 290.5 127.5T1085 598v261q0 200-108 328t-290 128q-172 0-274.5-128T310 859V598zm14 1026 289 257h158l288-257-2-6H859l-167 157-167-157H326zm666 170 140 260h211l-204-260H990z"/><glyph unicode="ố" d="M97 529v22q0 240 130 395.5T580 1102q225 0 355.5-155T1066 551v-22q0-242-130-396T582-21 227.5 133.5 97 529zm197 0q0-172 72.5-284T582 133q141 0 214 112t73 284v22q0 170-73.5 283T580 947q-141 0-213.5-113T294 551v-22zm-86 752 289 257h158l288-257-2-6H743l-167 157-167-157H210zm666 170 140 260h211l-204-260H874z"/><glyph unicode="Ồ" horiz-adv-x="1396" d="M113 598v259q0 266 159.5 443T687 1477q264 0 429.5-176.5T1282 857V598q0-267-165.5-443T687-21q-255 0-414.5 176T113 598zm197 0q0-202 102.5-330T687 140q183 0 290.5 127.5T1085 598v261q0 200-108 328t-290 128q-172 0-274.5-128T310 859V598zM50 2037h210l140-260H253zm281-430 288 257h158l289-257-2-6H865l-167 157-167-157H333z"/><glyph unicode="ồ" d="M97 529v22q0 240 130 395.5T580 1102q225 0 355.5-155T1066 551v-22q0-242-130-396T582-21 227.5 133.5 97 529zm197 0q0-172 72.5-284T582 133q141 0 214 112t73 284v22q0 170-73.5 283T580 947q-141 0-213.5-113T294 551v-22zM-66 1694h210l140-260H137zm281-430 288 257h158l289-257-2-6H749l-167 157-167-157H217z"/><glyph unicode="Ổ" horiz-adv-x="1396" d="M113 598v259q0 266 159.5 443T687 1477q264 0 429.5-176.5T1282 857V598q0-267-165.5-443T687-21q-255 0-414.5 176T113 598zm197 0q0-202 102.5-330T687 140q183 0 290.5 127.5T1085 598v261q0 200-108 328t-290 128q-172 0-274.5-128T310 859V598zm13 989 2-6h169l196 186 196-186h170l2 6-269 257H591zm693 393 6 94q127 0 195.5-43.5T1286 1912q0-61-37.5-93t-94.5-39l-1-61h-120l-1 133q66 4 93.5 17t27.5 45q0 34-37.5 50t-99.5 16z"/><glyph unicode="ổ" d="M97 529v22q0 240 130 395.5T580 1102q225 0 355.5-155T1066 551v-22q0-242-130-396T582-21 227.5 133.5 97 529zm197 0q0-172 72.5-284T582 133q141 0 214 112t73 284v22q0 170-73.5 283T580 947q-141 0-213.5-113T294 551v-22zm-87 716 2-6h169l196 186 196-186h170l2 6-269 257H475zm693 393 6 94q127 0 195.5-43.5T1170 1570q0-61-37.5-93t-94.5-39l-1-61H917l-1 133q66 4 93.5 17t27.5 45q0 34-37.5 50t-99.5 16z"/><glyph unicode="Ỗ" horiz-adv-x="1396" d="M113 598v259q0 266 159.5 443T687 1477q264 0 429.5-176.5T1282 857V598q0-267-165.5-443T687-21q-255 0-414.5 176T113 598zm197 0q0-202 102.5-330T687 140q183 0 290.5 127.5T1085 598v261q0 200-108 328t-290 128q-172 0-274.5-128T310 859V598zm17 991 289 257h157l289-257-2-6H890l-196 176-196-176H329zm99 328q0 69 48 124.5t114 55.5q42 0 103.5-34.5T792 2028q30 0 57 28t27 63l79-23q0-69-48.5-122.5T792 1920q-53 0-109.5 35.5T588 1991q-31 0-56.5-29.5T506 1898z"/><glyph unicode="ỗ" d="M97 529v22q0 240 130 395.5T580 1102q225 0 355.5-155T1066 551v-22q0-242-130-396T582-21 227.5 133.5 97 529zm197 0q0-172 72.5-284T582 133q141 0 214 112t73 284v22q0 170-73.5 283T580 947q-141 0-213.5-113T294 551v-22zm-83 718 289 257h157l289-257-2-6H774l-196 176-196-176H213zm99 328q0 69 48 124.5t114 55.5q42 0 103.5-34.5T676 1686q30 0 57 28t27 63l79-23q0-69-48.5-122.5T676 1578q-53 0-109.5 35.5T472 1649q-31 0-56.5-29.5T390 1556z"/><glyph unicode="Ộ" horiz-adv-x="1396" d="M113 598v259q0 266 159.5 443T687 1477q264 0 429.5-176.5T1282 857V598q0-267-165.5-443T687-21q-255 0-414.5 176T113 598zm197 0q0-202 102.5-330T687 140q183 0 290.5 127.5T1085 598v261q0 200-108 328t-290 128q-172 0-274.5-128T310 859V598zm82 1024v26l246 237h120l248-238v-25H845l-147 148-146-148H392zM589-145h218v-200H589v200z"/><glyph unicode="ộ" d="M97 529v22q0 240 130 395.5T580 1102q225 0 355.5-155T1066 551v-22q0-242-130-396T582-21 227.5 133.5 97 529zm197 0q0-172 72.5-284T582 133q141 0 214 112t73 284v22q0 170-73.5 283T580 947q-141 0-213.5-113T294 551v-22zm-18 750v26l246 237h120l248-238v-25H729l-147 148-146-148H276zM473-146h218v-200H473v200z"/><glyph unicode="Ớ" horiz-adv-x="1403" d="M108 598v259q0 266 159.5 443T682 1477q120 0 223-40t182-113q123 11 187 96.5t64 232.5h197q0-192-88-313.5T1197 1182q38-71 59-154t21-171V598q0-267-165.5-443T682-21q-255 0-414.5 176T108 598zm197 0q0-202 102.5-330T682 140q183 0 290.5 127.5T1080 598v261q0 200-108 328t-290 128q-172 0-274.5-128T305 859V598zm306 981 185 266h230l2-6-269-260H611z"/><glyph unicode="ớ" horiz-adv-x="1175" d="M97 529v22q0 240 130 395.5T580 1102q102 0 187-35t149-98q82 18 122 84t40 170h178q0-143-66.5-237T994 860q35-66 53.5-144.5T1066 551v-22q0-242-130-396T582-21 227.5 133.5 97 529zm197 0q0-172 72.5-284T582 133q141 0 214 112t73 284v22q0 170-73.5 283T580 947q-141 0-213.5-113T294 551v-22zm198 746 185 266h230l2-6-269-260H492z"/><glyph unicode="Ờ" horiz-adv-x="1403" d="M108 598v259q0 266 159.5 443T682 1477q120 0 223-40t182-113q123 11 187 96.5t64 232.5h197q0-192-88-313.5T1197 1182q38-71 59-154t21-171V598q0-267-165.5-443T682-21q-255 0-414.5 176T108 598zm197 0q0-202 102.5-330T682 140q183 0 290.5 127.5T1080 598v261q0 200-108 328t-290 128q-172 0-274.5-128T305 859V598zm71 1245 3 6h230l175-266H626z"/><glyph unicode="ờ" horiz-adv-x="1175" d="M97 529v22q0 240 130 395.5T580 1102q102 0 187-35t149-98q82 18 122 84t40 170h178q0-143-66.5-237T994 860q35-66 53.5-144.5T1066 551v-22q0-242-130-396T582-21 227.5 133.5 97 529zm197 0q0-172 72.5-284T582 133q141 0 214 112t73 284v22q0 170-73.5 283T580 947q-141 0-213.5-113T294 551v-22zm-37 1010 3 6h230l175-266H507z"/><glyph unicode="Ở" horiz-adv-x="1403" d="M108 598v259q0 266 159.5 443T682 1477q120 0 223-40t182-113q123 11 187 96.5t64 232.5h197q0-192-88-313.5T1197 1182q38-71 59-154t21-171V598q0-267-165.5-443T682-21q-255 0-414.5 176T108 598zm197 0q0-202 102.5-330T682 140q183 0 290.5 127.5T1080 598v261q0 200-108 328t-290 128q-172 0-274.5-128T305 859V598zm310 1268 7 108q147 0 226-51.5t79-137.5q0-70-43-106.5T776 1633l-1-71H635l-1 154q76 4 108.5 20t32.5 53q0 39-43.5 58T615 1866z"/><glyph unicode="ở" horiz-adv-x="1175" d="M97 529v22q0 240 130 395.5T580 1102q102 0 187-35t149-98q82 18 122 84t40 170h178q0-143-66.5-237T994 860q35-66 53.5-144.5T1066 551v-22q0-242-130-396T582-21 227.5 133.5 97 529zm197 0q0-172 72.5-284T582 133q141 0 214 112t73 284v22q0 170-73.5 283T580 947q-141 0-213.5-113T294 551v-22zm202 1033 7 108q147 0 226-51.5t79-137.5q0-70-43-106.5T657 1329l-1-71H516l-1 154q76 4 108.5 20t32.5 53q0 39-43.5 58T496 1562z"/><glyph unicode="Ỡ" horiz-adv-x="1403" d="M108 598v259q0 266 159.5 443T682 1477q120 0 223-40t182-113q123 11 187 96.5t64 232.5h197q0-192-88-313.5T1197 1182q38-71 59-154t21-171V598q0-267-165.5-443T682-21q-255 0-414.5 176T108 598zm197 0q0-202 102.5-330T682 140q183 0 290.5 127.5T1080 598v261q0 200-108 328t-290 128q-172 0-274.5-128T305 859V598zm49 1012q0 93 59 161.5t150 68.5q56 0 140-47t136-47q41 0 71 32.5t30 79.5l108-32q0-94-59.5-159T839 1602q-71 0-148 46.5T563 1695q-43 0-72-32.5t-29-78.5z"/><glyph unicode="ỡ" d="M97 529v22q0 240 130 395.5T580 1102q225 0 355.5-155T1066 551v-22q0-242-130-396T582-21 227.5 133.5 97 529zm197 0q0-172 72.5-284T582 133q141 0 214 112t73 284v22q0 170-73.5 283T580 947q-141 0-213.5-113T294 551v-22zm-59 777q0 93 59 161.5t150 68.5q56 0 140-47t136-47q41 0 71 32.5t30 79.5l108-32q0-94-59.5-159T720 1298q-71 0-148 46.5T444 1391q-43 0-72-32.5t-29-78.5z"/><glyph unicode="Ợ" horiz-adv-x="1403" d="M108 598v259q0 266 159.5 443T682 1477q120 0 223-40t182-113q123 11 187 96.5t64 232.5h197q0-192-88-313.5T1197 1182q38-71 59-154t21-171V598q0-267-165.5-443T682-21q-255 0-414.5 176T108 598zm197 0q0-202 102.5-330T682 140q183 0 290.5 127.5T1080 598v261q0 200-108 328t-290 128q-172 0-274.5-128T305 859V598zm278-735h218v-200H583v200z"/><glyph unicode="ợ" horiz-adv-x="1175" d="M97 529v22q0 240 130 395.5T580 1102q102 0 187-35t149-98q82 18 122 84t40 170h178q0-143-66.5-237T994 860q35-66 53.5-144.5T1066 551v-22q0-242-130-396T582-21 227.5 133.5 97 529zm197 0q0-172 72.5-284T582 133q141 0 214 112t73 284v22q0 170-73.5 283T580 947q-141 0-213.5-113T294 551v-22zm179-675h218v-200H473v200z"/><glyph unicode="Ụ" horiz-adv-x="1386" d="M147 489v967h197V489q0-167 95.5-261.5T686 133q160 0 260.5 94.5T1047 489v967h197V489q0-240-156-375T686-21q-237 0-388 135.5T147 489zm440-634h218v-200H587v200z"/><glyph unicode="ụ" d="M139 444v638h197V442q0-173 51-238t159-65q105 0 173.5 42.5T823 302v780h197V0H843l-13 160Q779 73 699 26T514-21Q337-21 238 92t-99 352zm266-581h218v-200H405v200z"/><glyph unicode="Ủ" horiz-adv-x="1386" d="M147 489v967h197V489q0-167 95.5-261.5T686 133q160 0 260.5 94.5T1047 489v967h197V489q0-240-156-375T686-21q-237 0-388 135.5T147 489zm464 1395 7 108q147 0 226-51.5t79-137.5q0-70-43-106.5T772 1651l-1-71H631l-1 154q76 4 108.5 20t32.5 53q0 39-43.5 58T611 1884z"/><glyph unicode="ủ" d="M139 444v638h197V442q0-173 51-238t159-65q105 0 173.5 42.5T823 302v780h197V0H843l-13 160Q779 73 699 26T514-21Q337-21 238 92t-99 352zm355 1098 7 108q147 0 226-51.5t79-137.5q0-70-43-106.5T655 1309l-1-71H514l-1 154q76 4 108.5 20t32.5 53q0 39-43.5 58T494 1542z"/><glyph unicode="Ứ" horiz-adv-x="1430" d="M147 489v967h197V489q0-167 95.5-261.5T686 133q160 0 260.5 94.5T1047 489v967h197v-178l6-2q86 27 132 108.5t46 206.5h190l3-5q2-193-96-314.5T1244 1116V489q0-240-156-375T686-21q-237 0-388 135.5T147 489zm459 1108 185 266h230l2-6-269-260H606z"/><glyph unicode="ứ" horiz-adv-x="1204" d="M139 444v638h197V442q0-173 51-238t159-65q105 0 173.5 42.5T823 302v780h197V968l6-2q100 7 142.5 71t42.5 190h169l3-6q3-177-85.5-273T1020 838V0H843l-13 160Q779 73 699 26T514-21Q337-21 238 92t-99 352zm351 810 185 266h230l2-6-269-260H490z"/><glyph unicode="Ừ" horiz-adv-x="1430" d="M147 489v967h197V489q0-167 95.5-261.5T686 133q160 0 260.5 94.5T1047 489v967h197v-178l6-2q86 27 132 108.5t46 206.5h190l3-5q2-193-96-314.5T1244 1116V489q0-240-156-375T686-21q-237 0-388 135.5T147 489zm224 1372 3 6h230l175-266H621z"/><glyph unicode="ừ" horiz-adv-x="1204" d="M139 444v638h197V442q0-173 51-238t159-65q105 0 173.5 42.5T823 302v780h197V968l6-2q100 7 142.5 71t42.5 190h169l3-6q3-177-85.5-273T1020 838V0H843l-13 160Q779 73 699 26T514-21Q337-21 238 92t-99 352zm116 1074 3 6h230l175-266H505z"/><glyph unicode="Ử" horiz-adv-x="1430" d="M147 489v967h197V489q0-167 95.5-261.5T686 133q160 0 260.5 94.5T1047 489v967h197v-178l6-2q86 27 132 108.5t46 206.5h190l3-5q2-193-96-314.5T1244 1116V489q0-240-156-375T686-21q-237 0-388 135.5T147 489zm463 1395 7 108q147 0 226-51.5t79-137.5q0-70-43-106.5T771 1651l-1-71H630l-1 154q76 4 108.5 20t32.5 53q0 39-43.5 58T610 1884z"/><glyph unicode="ử" horiz-adv-x="1204" d="M139 444v638h197V442q0-173 51-238t159-65q105 0 173.5 42.5T823 302v780h197V968l6-2q100 7 142.5 71t42.5 190h169l3-6q3-177-85.5-273T1020 838V0H843l-13 160Q779 73 699 26T514-21Q337-21 238 92t-99 352zm355 1098 7 108q147 0 226-51.5t79-137.5q0-70-43-106.5T655 1309l-1-71H514l-1 154q76 4 108.5 20t32.5 53q0 39-43.5 58T494 1542z"/><glyph unicode="Ữ" horiz-adv-x="1430" d="M147 489v967h197V489q0-167 95.5-261.5T686 133q160 0 260.5 94.5T1047 489v967h197v-178l6-2q86 27 132 108.5t46 206.5h190l3-5q2-193-96-314.5T1244 1116V489q0-240-156-375T686-21q-237 0-388 135.5T147 489zm202 1139q0 93 59 161.5t150 68.5q56 0 140-47t136-47q41 0 71 32.5t30 79.5l108-32q0-94-59.5-159T834 1620q-71 0-148 46.5T558 1713q-43 0-72-32.5t-29-78.5z"/><glyph unicode="ữ" horiz-adv-x="1204" d="M139 444v638h197V442q0-173 51-238t159-65q105 0 173.5 42.5T823 302v780h197V968l6-2q100 7 142.5 71t42.5 190h169l3-6q3-177-85.5-273T1020 838V0H843l-13 160Q779 73 699 26T514-21Q337-21 238 92t-99 352zm94 841q0 93 59 161.5t150 68.5q56 0 140-47t136-47q41 0 71 32.5t30 79.5l108-32q0-94-59.5-159T718 1277q-71 0-148 46.5T442 1370q-43 0-72-32.5t-29-78.5z"/><glyph unicode="Ự" horiz-adv-x="1430" d="M147 489v967h197V489q0-167 95.5-261.5T686 133q160 0 260.5 94.5T1047 489v967h197v-178l6-2q86 27 132 108.5t46 206.5h190l3-5q2-193-96-314.5T1244 1116V489q0-240-156-375T686-21q-237 0-388 135.5T147 489zm440-634h218v-200H587v200z"/><glyph unicode="ự" horiz-adv-x="1204" d="M139 444v638h197V442q0-173 51-238t159-65q105 0 173.5 42.5T823 302v780h197V968l6-2q100 7 142.5 71t42.5 190h169l3-6q3-177-85.5-273T1020 838V0H843l-13 160Q779 73 699 26T514-21Q337-21 238 92t-99 352zm266-581h218v-200H405v200z"/><glyph unicode="Ỳ" horiz-adv-x="1295" d="M40 1456h225l380-740 380 740h225L739 512V0H543v527zm281 404 3 6h230l175-266H571z"/><glyph unicode="ỳ" horiz-adv-x="1030" d="M26 1082h220l228-681 35-136h6l266 817h219L545-166q-41-109-117.5-190T221-437q-24 0-61 5.5T103-421l20 155q-6 1 35.5-2t52.5-3q63 0 103 56t67 124l47 113zm163 436 3 6h230l175-266H439z"/><glyph unicode="Ỵ" horiz-adv-x="1295" d="M40 1456h225l380-740 380 740h225L739 512V0H543v527zM537-127h218v-200H537v200z"/><glyph unicode="ỵ" horiz-adv-x="1030" d="M26 1082h220l228-681 35-136h6l266 817h219L545-166q-41-109-117.5-190T221-437q-24 0-61 5.5T103-421l20 155q-6 1 35.5-2t52.5-3q63 0 103 56t67 124l47 113zM608-294h218v-200H608v200z"/><glyph unicode="Ỷ" horiz-adv-x="1295" d="M40 1456h225l380-740 380 740h225L739 512V0H543v527zm520 427 7 108q147 0 226-51.5t79-137.5q0-70-43-106.5T721 1650l-1-71H580l-1 154q76 4 108.5 20t32.5 53q0 39-43.5 58T560 1883z"/><glyph unicode="ỷ" horiz-adv-x="1030" d="M26 1082h220l228-681 35-136h6l266 817h219L545-166q-41-109-117.5-190T221-437q-24 0-61 5.5T103-421l20 155q-6 1 35.5-2t52.5-3q63 0 103 56t67 124l47 113zm402 460 7 108q147 0 226-51.5t79-137.5q0-70-43-106.5T589 1309l-1-71H448l-1 154q76 4 108.5 20t32.5 53q0 39-43.5 58T428 1542z"/><glyph unicode="Ỹ" horiz-adv-x="1295" d="M40 1456h225l380-740 380 740h225L739 512V0H543v527zm259 171q0 93 59 161.5t150 68.5q56 0 140-47t136-47q41 0 71 32.5t30 79.5l108-32q0-94-59.5-159T784 1619q-71 0-148 46.5T508 1712q-43 0-72-32.5t-29-78.5z"/><glyph unicode="ỹ" horiz-adv-x="1030" d="M26 1082h220l228-681 35-136h6l266 817h219L545-166q-41-109-117.5-190T221-437q-24 0-61 5.5T103-421l20 155q-6 1 35.5-2t52.5-3q63 0 103 56t67 124l47 113zm141 203q0 93 59 161.5t150 68.5q56 0 140-47t136-47q41 0 71 32.5t30 79.5l108-32q0-94-59.5-159T652 1277q-71 0-148 46.5T376 1370q-43 0-72-32.5t-29-78.5z"/><glyph unicode="Ὅ" horiz-adv-x="1396" d="M113 598v259q0 266 159.5 443T687 1477q264 0 429.5-176.5T1282 857V598q0-267-165.5-443T687-21q-255 0-414.5 176T113 598zm197 0q0-202 102.5-330T687 140q183 0 290.5 127.5T1085 598v261q0 200-108 328t-290 128q-172 0-274.5-128T310 859V598zm-529 743h188v137l82 204H-57l-162-198v-143zm301 2v27l102 313h209v-21l-229-319H82z"/><glyph horiz-adv-x="1044"/><glyph horiz-adv-x="2089"/><glyph horiz-adv-x="1044"/><glyph horiz-adv-x="2089"/><glyph horiz-adv-x="697"/><glyph horiz-adv-x="522"/><glyph horiz-adv-x="348"/><glyph horiz-adv-x="1151"/><glyph horiz-adv-x="560"/><glyph horiz-adv-x="418"/><glyph horiz-adv-x="209"/><glyph unicode="​" horiz-adv-x="0"/><glyph unicode="‐" horiz-adv-x="923" d="M167 538v154h590V538H167z"/><glyph unicode="‑" horiz-adv-x="923" d="M167 538v154h590V538H167z"/><glyph unicode="‒" horiz-adv-x="923" d="M167 538v154h590V538H167z"/><glyph unicode="–" horiz-adv-x="1416" d="M179.398 648v155h1085.49V648H179.398z"/><glyph unicode="—" horiz-adv-x="1660" d="M187.796 648v155h1335.98V648H187.796z"/><glyph unicode="―" horiz-adv-x="1660" d="M187.796 648v155h1335.98V648H187.796z"/><glyph unicode="‗" horiz-adv-x="935" d="M5-255h923v-154H5v154zM5 0h923v-154H5V0z"/><glyph unicode="‘" horiz-adv-x="524" d="M145 917v184l101 355h97l-1-361V917H145z"/><glyph unicode="’" horiz-adv-x="516" d="m160 917 1 343v196h197v-193L257 917h-97z"/><glyph unicode="‚" horiz-adv-x="540" d="m168-255 1 263v241h197V26L265-255h-97z"/><glyph unicode="‛" horiz-adv-x="444" d="m283.01 917-1 343v196H85.022v-193l100.994-346h96.994z"/><glyph unicode="“" horiz-adv-x="788" d="M123 917v184l101 355h97l-1-361V917H123zm328 0v184l101 355h97l-1-361V917H451z"/><glyph unicode="”" horiz-adv-x="769" d="m125 917 1 343v196h197v-193L222 917h-97zm336 0 1 343v196h197v-193L558 917h-97z"/><glyph unicode="„" horiz-adv-x="767" d="m138-239 1 325v194h197V96L235-239h-97zm308 0 1 333v186h197V96L543-239h-97z"/><glyph unicode="†" horiz-adv-x="1129" d="M70 926v156h394v374h197v-374h399V926H661V0H464v926H70z"/><glyph unicode="‡" horiz-adv-x="1170" d="M87 0v154h393v772H87v156h393v374h197v-374h399V926H677V154h399V0H677v-416H480V0H87z"/><glyph unicode="•" horiz-adv-x="695" d="M137 733v60q0 88 56 144t150 56q95 0 151.5-56T551 793v-60q0-89-56-143.5T344 535t-151 55-56 143z"/><glyph unicode="‥" horiz-adv-x="970" d="M161 0v202h197V0H161zm443 0v202h197V0H604z"/><glyph unicode="…" horiz-adv-x="1380" d="M161 0v202h197V0H161zm443 0v202h197V0H604zm420 0v202h197V0h-197z"/><glyph horiz-adv-x="432"/><glyph unicode="‰" horiz-adv-x="1956" d="M64 1099v77q0 127 82 214t218 87q138 0 220-86.5t82-214.5v-77q0-127-82-213t-218-86q-137 0-219.5 86T64 1099zm146 0q0-74 40.5-125.5T366 922q73 0 113.5 51t40.5 126v77q0 74-41 126.5T364 1355t-114-52.5-40-126.5v-77zm139-922 711 1138 109-67L458 110zm470 102v78q0 126 82 213t218 87q74 0 132.5-31.5T1347 540q37 54 95.5 85.5T1575 657q137 0 219.5-86.5T1877 357v-78q0-128-82-214t-218-86q-75 0-134 30.5T1347 95q-37-55-95-85.5T1121-21q-138 0-220 86t-82 214zm146 0q0-75 40.5-126.5T1121 101q74 0 114 51.5t40 126.5v78q0 74-41 126t-115 52-114-52-40-126v-78zm456 0q0-75 40.5-126.5T1577 101q73 0 113 51.5t40 126.5v78q0 74-40.5 126T1575 535t-114-52-40-126v-78z"/><glyph unicode="′" horiz-adv-x="445" d="m126 951 1 265v240h197v-223L223 951h-97z"/><glyph unicode="″" horiz-adv-x="733" d="m126 936 1 240v280h197v-270L223 936h-97zm309 0v520h198v-270L532 936h-97z"/><glyph unicode="‹" horiz-adv-x="615" d="M108 541v19l295 389h148L296 550l255-398H403z"/><glyph unicode="›" horiz-adv-x="615" d="m94 170 231 380L94 930h148l278-357h5l1-9 5-5-2-9 2-9-5-6-1-7h-4L242 170H94z"/><glyph unicode="‼" horiz-adv-x="1078" d="M171 0v204h198V0H171zm0 478v978h197V478H171zM710 0v204h198V0H710zm0 478v978h197V478H710z"/><glyph unicode="⁄" horiz-adv-x="933" d="m59 177 711 1138 109-67L168 110z"/><glyph horiz-adv-x="540"/><glyph unicode="⁴" horiz-adv-x="941" d="m71 840 454 637h177V873h149V744H702V560H530v184H75zm190 33h269v377l-6 1-13-26z"/><glyph unicode="ⁿ" horiz-adv-x="864" d="M122 651v800h136l31-120q36 64 91 99.5t125 35.5q122 0 189.5-75.5T762 1159V651H582v475q0 102-35.5 147.5T446 1319q-53 0-89-27t-55-74V651H122z"/></font>
</defs>
</svg>
